Joe Diorio Robben Ford - Minor Elegance (1990)
MP3 FLAC WMA APE HD

Joe Diorio Robben Ford - Minor Elegance (1990)

Artist: Joe Diorio & Robben Ford
Title Of Album: Minor Elegance
Year Of Release: 1990
Label: MGR
Genre: Jazz
Quality: FLAC (image+.cue) + log
Bitrate: Lossless
Total Time: 43:51
Total Size: 240 Mb
Minor Elegance is a 1990 studio album by Joe Diorio and Robben Ford. Recorded live at the Mad Hatter Studios Los Angeles and mixed at the MGI Records Studios Munich.
Tracklist:
1. Swank Thing (Ford) 05:50
2. AM/PM (Diorio) 05:35
3. E-Mnor Ballad (Diorio) 06:38
4. Unis (Diorio) 05:16
5. Blues for All Space Cadets (Diorio) 06:37
6. Soul Eyes (Waldron) 05:02
7. So What (Diorio) 08:26
Exact Audio Copy V0.99 prebeta 4 from 23. January 2008
Отчёт EAC об извлечении, выполненном 1. декабря 2010, 17:17
Joe Diorio & Robben Ford / Minor Elegance
Дисковод: _NEC DV-5800C Adapter: 0 ID: 1
Режим чтения : Достоверность
Использование точного потока : Да
Отключение кэша аудио : Да
Использование указателей C2 : Нет
Коррекция смещения при чтении : 12
Способность читать области Lead-in и Lead-out : Нет
Заполнение пропущенных сэмплов тишиной : Да
Удаление блоков с тишиной в начале и конце : Нет
При вычислениях CRC использовались нулевые сэмплы : Да
Интерфейс : Установленный внешний ASPI-интерфейс
Выходной формат : Пользовательский кодировщик
Выбранный битрейт : 768 kBit/s
Качество : Высокий
Добавление ID3-тэга : Нет
Утилита сжатия : C:Program FilesExact Audio CopyFlacflac.exe
Дополнительные параметры : -8 -V -T "ARTIST=%a" -T "TITLE=%t" -T "ALBUM=%g" -T "DATE=%y" -T "TRACKNUMBER=%n" -T "GENRE=%m" -T "COMMENT=" -T "" %s -o %d
TOC извлечённого CD
Трек | Старт | Длительность | Начальный сектор | Конечный сектор
---------------------------------------------------------------------
1 | 0:00.32 | 5:56.00 | 32 | 26731
2 | 5:56.32 | 5:40.00 | 26732 | 52231
3 | 11:36.32 | 6:43.00 | 52232 | 82456
4 | 18:19.32 | 5:18.43 | 82457 | 106349
5 | 23:38.00 | 6:41.30 | 106350 | 136454
6 | 30:19.30 | 5:06.20 | 136455 | 159424
7 | 35:25.50 | 8:26.15 | 159425 | 197389
Характеристики диапазона извлечения и сообщения об ошибках
Выбранный диапазон
Имя файла D:My MusicLarryJoe Diorio & Robben Ford - Minor EleganceJoe Diorio & Robben Ford - Minor Elegance.wav
Пиковый уровень 100.0 %
Качество диапазона 100.0 %
CRC копии B7C5979A
Копирование... OK
Ошибок не произошло
Конец отчёта
FileSonic
Wupload



Alternative download links

DOWNLOAD

Related MP3 FLAC to Joe Diorio Robben Ford - Minor Elegance (1990)
Feedback
All rights reserved.
WEBBG.com © 2000-2018