Boney James - Send One Your Love (2009)
MP3 FLAC WMA APE HD

Boney James - Send One Your Love (2009)

Artist: Boney James
Title Of Album: Send One Your Love
Year Of Release: 2009
Label: Concord Records
Genre: Jazz, Smooth Jazz
Quality: FLAC (Tracks,cue,log,scans)|MP3
Bitrate: lossless | 320kbps
Total Time: 48:15 min
Total Size: 355 mb/131 mb
TRACKLIST
1. Wanna Show U Sumthin' 5:25
2. Send One Your Love 4:35
3. Stop, Look, Listen (To Your Heart) 4:57
4. Touch 3:47
5. Don't Let Me Be Lonely Tonight (introducing 4:17
Quinn)
6. Hold ON Tight 5:05
7. I'm Gonna Love You Just A Little More Baby 4:30
8. City Of Light 5:24
9. Butter 5:05
10. I'll Be Good To You 5:10
EAC extraction logfile from 3. February 2009, 12:41 for CD
Boney James / Send One Your Love
Used drive : PIONEER DVD-RW DVR-116D Adapter: 0 ID: 0
Read mode : Secure with NO C2, accurate stream, disable cache
Read offset correction : 96
Overread into Lead-In and Lead-Out : No
Used output format : C:EACflac-1.1.2-winbinflac.exe (User Defined Encoder)
320 kBit/s
Additional command line options : -8 -V -T "ARTIST=%a" -T "TITLE=%t" -T "ALBUM=%g" -T "DATE=%y" -T "TRACKNUMBER=%n" -T "GENRE=%m" -T "COMMENT=EAC FLAC -8" %s
Other options :
Fill up missing offset samples with silence : Yes
Delete leading and trailing silent blocks : No
Installed external ASPI interface
Track 1
Filename D:Boney James - Send One Your Love [FLAC]1 - Wanna Show U Sumthin.wav
Pre-gap length 0:00:02.00
Peak level 99.7 %
Track quality 99.9 %
Test CRC 0BCDAC53
Copy CRC 0BCDAC53
Copy OK
Track 2
Filename D:Boney James - Send One Your Love [FLAC]2 - Send One Your Love.wav
Pre-gap length 0:00:00.53
Peak level 99.7 %
Track quality 100.0 %
Test CRC 38FF2B67
Copy CRC 38FF2B67
Copy OK
Track 3
Filename D:Boney James - Send One Your Love [FLAC]3 - Stop, Look, Listen (To Your Heart).wav
Pre-gap length 0:00:01.18
Peak level 99.7 %
Track quality 100.0 %
Test CRC 98143CE4
Copy CRC 98143CE4
Copy OK
Track 4
Filename D:Boney James - Send One Your Love [FLAC]4 - Touch.wav
Pre-gap length 0:00:01.08
Peak level 99.7 %
Track quality 100.0 %
Test CRC 63FE0FCF
Copy CRC 63FE0FCF
Copy OK
Track 5
Filename D:Boney James - Send One Your Love [FLAC]5 - Don't Let Me Be Lonely Tonight.wav
Pre-gap length 0:00:01.45
Peak level 99.7 %
Track quality 100.0 %
Test CRC 33503EAC
Copy CRC 33503EAC
Copy OK
Track 6
Filename D:Boney James - Send One Your Love [FLAC]6 - Hold On Tight.wav
Pre-gap length 0:00:00.70
Peak level 99.7 %
Track quality 100.0 %
Test CRC 04BB9FEB
Copy CRC 04BB9FEB
Copy OK
Track 7
Filename D:Boney James - Send One Your Love [FLAC]7 - I'm Gonna Love You Just A Little More Baby-.wav
Pre-gap length 0:00:00.45
Peak level 99.7 %
Track quality 99.9 %
Test CRC 287AFC77
Copy CRC 287AFC77
Copy OK
Track 8
Filename D:Boney James - Send One Your Love [FLAC]8 - City Of Light.wav
Pre-gap length 0:00:01.17
Peak level 99.7 %
Track quality 100.0 %
Test CRC B4ED473B
Copy CRC B4ED473B
Copy OK
Track 9
Filename D:Boney James - Send One Your Love [FLAC]9 - Butler.wav
Pre-gap length 0:00:02.36
Peak level 99.7 %
Track quality 99.9 %
Test CRC 14A82C49
Copy CRC 14A82C49
Copy OK
Track 10
Filename D:Boney James - Send One Your Love [FLAC]10 - I'll Be Good To You.wav
Pre-gap length 0:00:01.10
Peak level 99.7 %
Track quality 100.0 %
Test CRC 2050A70B
Copy CRC 2050A70B
Copy OK
Track 11
Filename D:Boney James - Send One Your Love [FLAC]11 - Summer Dress (Bonus Track).wav
Pre-gap length 0:00:01.21
Peak level 99.7 %
Track quality 100.0 %
Test CRC 4C813EE9
Copy CRC 4C813EE9
Copy OK
No errors occured
End of status report
Download




Alternative download links

Fileserve

Related MP3 FLAC to Boney James - Send One Your Love (2009)
Feedback
All rights reserved.
WEBBG.com © 2000-2018