Tough Young Tenors - Alone Together (1991)
MP3 FLAC WMA APE HD

Tough Young Tenors - Alone Together (1991)

  • Genre: Music, Jazz, FLAC / APE
  • Formats: MP3 FLAC WMA HD APE
  • Album Size: 1903 mb.
  • Archive: ZIP RAR
Artist: Tough Young Tenors
Title Of Album: Alone Together
Year Of Release: 1991
Label: Island Records, Inc. / Antilles
Genre: Jazz, Hard Bop
Quality: FLAC (tracks+.cue) + log
Bitrate: Lossless
Total Time: 1:05:08
Total Size: 415 Mb
Fine session in vintage jam session context featuring solos from rising saxophonists Herb Harris, James Carter, Walter Blanding Jr., Tim Warfield, Jr., and Todd Williams. Since the release of this set, all the performers stock has risen, particularly Williams and Harris.
Tracklist:
01. Jim Dog - 5:54
02. Just You Just Me - 5:35
03. You Go To My Head - 5:33
04. Stevie - 7:13
05. The Break Through - 3:52
06. Alone Together - 8:06
07. Ask Me Now - 5:15
08. Blues On The Corner - 5:07
09. Chelsea Bridge - 6:44
10. Calvary - 5:42
11. The Eternal Triangle - 6:06
Exact Audio Copy V1.0 beta 1 from 15. November 2010
EAC extraction logfile from 4. March 2011, 0:17
Tough Young Tenors / Alone Together
Used drive : HL-DT-STDVD-RAM GSA-H55N Adapter: 0 ID: 2
Read mode : Secure
Utilize accurate stream : Yes
Defeat audio cache : Yes
Make use of C2 pointers : No
Read offset correction : 102
Overread into Lead-In and Lead-Out : Yes
Fill up missing offset samples with silence : Yes
Delete leading and trailing silent blocks : No
Null samples used in CRC calculations : Yes
Used interface : Installed external ASPI interface
Gap handling : Appended to previous track
Used output format : User Defined Encoder
Selected bitrate : 128 kBit/s
Quality : High
Add ID3 tag : No
Command line compressor : G:Program FilesExact Audio CopyEncoderflac.exe
Additional command line options : -V -8 -T "Genre=%m" -T "Artist=%a" -T "Title=%t" -T "Album=%g" -T "Date=%y" -T "Tracknumber=%n" -T "Comment=EAC1.0b1 -8" %s
TOC of the extracted CD
Track | Start | Length | Start sector | End sector
---------------------------------------------------------
1 | 0:00.32 | 5:53.50 | 32 | 26556
2 | 5:54.07 | 5:35.20 | 26557 | 51701
3 | 11:29.27 | 5:33.25 | 51702 | 76701
4 | 17:02.52 | 7:13.15 | 76702 | 109191
5 | 24:15.67 | 3:51.38 | 109192 | 126554
6 | 28:07.30 | 8:06.07 | 126555 | 163011
7 | 36:13.37 | 5:15.13 | 163012 | 186649
8 | 41:28.50 | 5:07.10 | 186650 | 209684
9 | 46:35.60 | 6:44.25 | 209685 | 240009
10 | 53:20.10 | 5:42.25 | 240010 | 265684
11 | 59:02.35 | 6:05.70 | 265685 | 293129
Track 1
Filename F:WAV1 - Jim Dog.wav
Pre-gap length 0:00:02.32
Peak level 100.0 %
Extraction speed 4.6 X
Track quality 99.9 %
Test CRC 46D1C48F
Copy CRC 46D1C48F
Accurately ripped (confidence 5) [9070C83D]
Copy OK
Track 2
Filename F:WAV2 - Just You Just Me.wav
Pre-gap length 0:00:00.25
Peak level 90.0 %
Extraction speed 5.7 X
Track quality 100.0 %
Test CRC 2A648EF6
Copy CRC 2A648EF6
Accurately ripped (confidence 5) [760FE508]
Copy OK
Track 3
Filename F:WAV3 - You Go To My Head.wav
Pre-gap length 0:00:01.07
Peak level 83.4 %
Extraction speed 6.2 X
Track quality 100.0 %
Test CRC 496ED7BF
Copy CRC 496ED7BF
Accurately ripped (confidence 5) [17723D83]
Copy OK
Track 4
Filename F:WAV4 - Stevie.wav
Pre-gap length 0:00:01.07
Peak level 71.4 %
Extraction speed 6.9 X
Track quality 100.0 %
Test CRC 1E6CA4C7
Copy CRC 1E6CA4C7
Accurately ripped (confidence 5) [D9FBA160]
Copy OK
Track 5
Filename F:WAV5 - The Break Through.wav
Pre-gap length 0:00:00.60
Peak level 76.0 %
Extraction speed 6.9 X
Track quality 100.0 %
Test CRC 3F2265FD
Copy CRC 3F2265FD
Accurately ripped (confidence 5) [4D857AA2]
Copy OK
Track 6
Filename F:WAV6 - Alone Together.wav
Pre-gap length 0:00:00.20
Peak level 81.6 %
Extraction speed 7.8 X
Track quality 100.0 %
Test CRC BF607629
Copy CRC BF607629
Accurately ripped (confidence 5) [D41C644D]
Copy OK
Track 7
Filename F:WAV7 - Ask Me Now.wav
Pre-gap length 0:00:01.52
Peak level 83.9 %
Extraction speed 7.9 X
Track quality 100.0 %
Test CRC 97F23C8C
Copy CRC 97F23C8C
Accurately ripped (confidence 5) [FCB474FE]
Copy OK
Track 8
Filename F:WAV8 - Blues On The Corner.wav
Pre-gap length 0:00:01.03
Peak level 73.1 %
Extraction speed 8.1 X
Track quality 100.0 %
Test CRC 2A4E8F1C
Copy CRC 2A4E8F1C
Accurately ripped (confidence 5) [48C1A0F9]
Copy OK
Track 9
Filename F:WAV9 - Chelsea Bridge.wav
Pre-gap length 0:00:01.53
Peak level 83.3 %
Extraction speed 8.6 X
Track quality 100.0 %
Test CRC F15FA8C1
Copy CRC F15FA8C1
Accurately ripped (confidence 4) [9D223659]
Copy OK
Track 10
Filename F:WAV10 - Calvary.wav
Pre-gap length 0:00:01.43
Peak level 82.6 %
Extraction speed 7.8 X
Track quality 99.9 %
Test CRC BABCA0E8
Copy CRC BABCA0E8
Accurately ripped (confidence 4) [707B9500]
Copy OK
Track 11
Filename F:WAV11 - The Eternal Triangle.wav
Pre-gap length 0:00:01.03
Peak level 86.6 %
Extraction speed 6.8 X
Track quality 99.9 %
Test CRC 9C497788
Copy CRC 9C497788
Accurately ripped (confidence 3) [9217F862]
Copy OK
All tracks accurately ripped
No errors occurred
End of status report
FileSonic.com
Turbobit.net



Alternative download links

DOWNLOAD

Related MP3 FLAC to Tough Young Tenors - Alone Together (1991)
Feedback
All rights reserved.
WEBBG.com © 2000-2018