Michael Morales - Michael Morales (1989)
MP3 FLAC WMA APE HD

Michael Morales - Michael Morales (1989)

Artist: Michael Morales
Title Of Album: Michael Morales
Year Of Release: 1989
Label: Wing Records
Genre: Melodic Rock
Quality: FLAC (image+.cue) + log
Bitrate: Lossless
Total Time: 00:44:18
Total Size: 310 Mb
Michael Morales, (born April 25, 1963), is an American musician most known for the Top 40-charting songs, "Who Do You Give Your Love To?", (#15 Billboard Hot 100), and a cover version of The Romantics, "What I Like About You", (#28 Billboard Hot 100).
Tracklist:
01. I Don't Want You No More
02. Who Do You Give Your Love To
03. Eighteen
04. I Don't Know
05. Cry,Cry,Cry
06. Romeo
07. What I Like About You
08. I Only Want To Look Into Your Eyes
09. Hey Lori
10. Way To Go Baby
11. Wont You Come Home
Exact Audio Copy V1.0 beta 1 from 15. November 2010
EAC extraction logfile from 13. April 2011, 9:00
Michael Morales / Michael Morales
Used drive : HL-DT-STDVDRAM GSA-T10N Adapter: 0 ID: 1
Read mode : Secure
Utilize accurate stream : Yes
Defeat audio cache : Yes
Make use of C2 pointers : No
Read offset correction : 667
Overread into Lead-In and Lead-Out : No
Fill up missing offset samples with silence : Yes
Delete leading and trailing silent blocks : No
Null samples used in CRC calculations : Yes
Used interface : Native Win32 interface for Win NT & 2000
Used output format : User Defined Encoder
Selected bitrate : 768 kBit/s
Quality : High
Add ID3 tag : No
Command line compressor : C:Program FilesExact Audio CopyFLACFLAC.EXE
Additional command line options : ‐8 ‐V ‐T "ARTIST=%a" ‐T "TITLE=%t" ‐T "ALBUM=%g" ‐T "DATE=%y" ‐T "TRACKNUMBER=%n" ‐T "GENRE=%m" ‐T "COMMENT=EAC FLAC ‐8" %s
TOC of the extracted CD
Track | Start | Length | Start sector | End sector
---------------------------------------------------------
1 | 0:00.32 | 3:36.73 | 32 | 16304
2 | 3:37.30 | 4:06.10 | 16305 | 34764
3 | 7:43.40 | 4:49.27 | 34765 | 56466
4 | 12:32.67 | 3:57.65 | 56467 | 74306
5 | 16:30.57 | 4:53.33 | 74307 | 96314
6 | 21:24.15 | 4:11.05 | 96315 | 115144
7 | 25:35.20 | 3:04.45 | 115145 | 128989
8 | 28:39.65 | 4:01.60 | 128990 | 147124
9 | 32:41.50 | 3:32.57 | 147125 | 163081
10 | 36:14.32 | 4:49.68 | 163082 | 184824
11 | 41:04.25 | 3:14.35 | 184825 | 199409
Range status and errors
Selected range
Filename C:UsersGundarsDesktopMoralesMichael Morales - Selftitled.wav
Peak level 100.0 %
Extraction speed 0.2 X
Range quality 100.0 %
Copy CRC 7642F4AB
Copy OK
No errors occurred
AccurateRip summary
Track 1 not present in database
Track 2 not present in database
Track 3 not present in database
Track 4 not present in database
Track 5 not present in database
Track 6 not present in database
Track 7 not present in database
Track 8 not present in database
Track 9 not present in database
Track 10 not present in database
Track 11 not present in database
None of the tracks are present in the AccurateRip database
End of status report
FileSonic
Oron



Alternative download links

DOWNLOAD

Related MP3 FLAC to Michael Morales - Michael Morales (1989)
Feedback
All rights reserved.
WEBBG.com © 2000-2018