Scandal – Warrior (1984)
MP3 FLAC WMA APE HD

Scandal – Warrior (1984)

Artist: Scandal
Title Of Album: Warrior
Year Of Release: 1984
Label: Columbia
Genre: Pop Rock
Quality: FLAC (image+.cue) + log
Bitrate: Lossless
Total Time: 00:43:49
Total Size: 285 Mb
"The Warrior" is a song by pop/rock group Scandal, from the album of the same name. The song went to number one in Canada and number seven in the US, as well as number one on the Mainstream Rock chart in the US, in addition to winning a BMI Airplay Award in 1984.
Tracklist:
01. The Warrior 4:03
02. Beat Of A Heart 4:46
03. Hands Tied 4:07
04. Less Than Half 4:18
05. Only The Young 4:29
06. All I Want 4:11
07. Talk To Me 3:56
08. Say What You Will 4:41
09. Tonight 4:19
10. Maybe We Went Too Far 4:50
Exact Audio Copy V1.0 beta 1 from 15. November 2010
EAC extraction logfile from 28. July 2011, 9:40
Scandal / Warrior
Used drive : HL-DT-STDVDRAM GSA-T10N Adapter: 0 ID: 1
Read mode : Secure
Utilize accurate stream : Yes
Defeat audio cache : Yes
Make use of C2 pointers : No
Read offset correction : 667
Overread into Lead-In and Lead-Out : No
Fill up missing offset samples with silence : Yes
Delete leading and trailing silent blocks : No
Null samples used in CRC calculations : Yes
Used interface : Native Win32 interface for Win NT & 2000
Used output format : User Defined Encoder
Selected bitrate : 768 kBit/s
Quality : High
Add ID3 tag : No
Command line compressor : C:Program FilesExact Audio CopyFLACFLAC.EXE
Additional command line options : -6 -V -T "ARTIST=%a" -T "TITLE=%t" -T "ALBUM=%g" -T "DATE=%y" -T "TRACKNUMBER=%n" -T "GENRE=%m" -T "COMMENT=%e" %j--picture="%i"%j %s -o %d
TOC of the extracted CD
Track | Start | Length | Start sector | End sector
---------------------------------------------------------
1 | 0:00.00 | 4:02.50 | 0 | 18199
2 | 4:02.50 | 4:46.27 | 18200 | 39676
3 | 8:49.02 | 4:07.50 | 39677 | 58251
4 | 12:56.52 | 4:18.10 | 58252 | 77611
5 | 17:14.62 | 4:29.58 | 77612 | 97844
6 | 21:44.45 | 4:13.02 | 97845 | 116821
7 | 25:57.47 | 3:55.40 | 116822 | 134486
8 | 29:53.12 | 4:41.55 | 134487 | 155616
9 | 34:34.67 | 4:23.23 | 155617 | 175364
10 | 38:58.15 | 4:50.72 | 175365 | 197186
Range status and errors
Selected range
Filename C:Documents and SettingsUserDesktopScandalScandal - Warrior.wav
Peak level 93.3 %
Extraction speed 0.4 X
Range quality 100.0 %
Copy CRC A2CF1639
Copy OK
No errors occurred
AccurateRip summary
Track 1 not present in database
Track 2 not present in database
Track 3 not present in database
Track 4 not present in database
Track 5 not present in database
Track 6 not present in database
Track 7 not present in database
Track 8 not present in database
Track 9 not present in database
Track 10 not present in database
None of the tracks are present in the AccurateRip database
End of status report
FileSonic
Wupload



Alternative download links

DOWNLOAD

Related MP3 FLAC to Scandal – Warrior (1984)
Feedback
All rights reserved.
WEBBG.com © 2000-2018