The Jan Holberg Project - Sense Of Time (2011)
MP3 FLAC WMA APE HD

The Jan Holberg Project - Sense Of Time (2011)

Artist: The Jan Holberg Project
Title Of Album: Sense Of Time
Year Of Release: 2011
Label: Nordic Records
Genre: Melodic Rock / AOR
Quality: APE (image+.cue) + log
Bitrate: Lossless
Total Time: 31:08
Total Size: 210 Mb
The Norwegian bassist/songwriter Jan Holberg has joined forces with legendary singer Joe Lynn Turner to release an exciting debut album, a move that will thrill the fans around the world.
Tracklist:
01. Sense Of Time
02. Mesmerized
03. Sorry
04. Heart Of Summer
05. Wild Eyes
06. The Meadow (Instrumental)
07. Invincible
08. Vision Of Lust
09. Come Rain Come Shine
10. Mother Nature (Instrumental)
Exact Audio Copy V0.99 prebeta 5 from 4. May 2009
EAC extraction logfile from 8. April 2011, 18:27
The Jan Holberg Project / Sense Of Time
Used drive : TSSTcorpCDDVDW SH-S223C Adapter: 1 ID: 1
Read mode : Secure
Utilize accurate stream : Yes
Defeat audio cache : Yes
Make use of C2 pointers : No
Read offset correction : 697
Overread into Lead-In and Lead-Out : No
Fill up missing offset samples with silence : Yes
Delete leading and trailing silent blocks : No
Null samples used in CRC calculations : Yes
Used interface : Installed external ASPI interface
Used output format : Internal WAV Routines
Sample format : 44.100 Hz; 16 Bit; Stereo
TOC of the extracted CD
Track | Start | Length | Start sector | End sector
---------------------------------------------------------
1 | 0:00.00 | 2:53.07 | 0 | 12981
2 | 2:53.07 | 3:20.69 | 12982 | 28050
3 | 6:14.01 | 3:20.69 | 28051 | 43119
4 | 9:34.70 | 3:48.21 | 43120 | 60240
5 | 13:23.16 | 0:25.50 | 60241 | 62165
6 | 13:48.66 | 2:59.55 | 62166 | 75645
7 | 16:48.46 | 2:48.08 | 75646 | 88253
8 | 19:36.54 | 4:05.71 | 88254 | 106699
9 | 23:42.50 | 3:57.30 | 106700 | 124504
10 | 27:40.05 | 3:27.71 | 124505 | 140100
Range status and errors
Selected range
Filename E:The Jan Holberg Project - Sense Of Time Sense Of Time.wav
Peak level 100.0 %
Range quality 100.0 %
Copy CRC A76711F4
Copy OK
No errors occurred
End of status report
FileSonic
Turbobit



Alternative download links

DOWNLOAD

Related MP3 FLAC to The Jan Holberg Project - Sense Of Time (2011)
Feedback
All rights reserved.
WEBBG.com © 2000-2018