Eclat - Eclat II (2005)
MP3 FLAC WMA APE HD

Eclat - Eclat II (2005)

Free download links


Eclat - Eclat II (2005) .zip
MP3 version ZIP archive

1850 downloads at 30 mb/s

Eclat - Eclat II (2005) .zip
FLAC/APE version ZIP archive

943 downloads at 22 mb/s
Artist: Eclat
Title Of Album: Eclat II
Year Of Release: 2005
Label: MALS
Genre: Symphonic Prog
Quality: APE (image+.cue) + log
Bitrate: Lossless
Total Time: 40:09
Total Size: 224 Mb
"Eclat II" is an album of Eclat, released in 2005. Gorgeous tracks! Great album! Enjoy!
Tracklist:
1. Le Chemin vers les Nornes
2. Vitriol
3. Se Tu An Tan
4. Cinq-Quarts
5. Page Orientale
6. Tau
7. Opéra Magique
8. Le Moissonneur
9. Circus
Exact Audio Copy V1.0 beta 1 from 15. November 2010
EAC extraction logfile from 27. August 2011, 18:29
Eclat / Eclat II
Used drive : _NEC DVD_RW ND-4571A Adapter: 3 ID: 0
Read mode : Secure
Utilize accurate stream : Yes
Defeat audio cache : Yes
Make use of C2 pointers : No
Read offset correction : 48
Overread into Lead-In and Lead-Out : No
Fill up missing offset samples with silence : Yes
Delete leading and trailing silent blocks : No
Null samples used in CRC calculations : Yes
Used interface : Native Win32 interface for Win NT & 2000
Used output format : Internal WAV Routines
Sample format : 44.100 Hz; 16 Bit; Stereo
TOC of the extracted CD
Track | Start | Length | Start sector | End sector
---------------------------------------------------------
1 | 0:00.32 | 7:34.25 | 32 | 34106
2 | 7:34.57 | 4:16.45 | 34107 | 53351
3 | 11:51.27 | 3:45.08 | 53352 | 70234
4 | 15:36.35 | 5:10.12 | 70235 | 93496
5 | 20:46.47 | 3:47.03 | 93497 | 110524
6 | 24:33.50 | 2:09.62 | 110525 | 120261
7 | 26:43.37 | 3:47.63 | 120262 | 137349
8 | 30:31.25 | 2:56.62 | 137350 | 150611
9 | 33:28.12 | 6:40.40 | 150612 | 180651
Range status and errors
Selected range
Filename D:vknishEclat - Eclat II.wav
Peak level 97.2 %
Extraction speed 0.7 X
Range quality 100.0 %
Test CRC A442BA81
Copy CRC A442BA81
Copy OK
No errors occurred
AccurateRip summary
Track 1 accurately ripped (confidence 2) [D560A46C]
Track 2 accurately ripped (confidence 2) [134B789F]
Track 3 accurately ripped (confidence 2) [722903E5]
Track 4 accurately ripped (confidence 2) [BB47BC57]
Track 5 accurately ripped (confidence 2) [420A32C1]
Track 6 accurately ripped (confidence 2) [EC2502C3]
Track 7 accurately ripped (confidence 2) [977F8994]
Track 8 accurately ripped (confidence 2) [E95DAA9E]
Track 9 accurately ripped (confidence 2) [70114F58]
All tracks accurately ripped
End of status report
FileSonic
Wupload



Alternative download links

DOWNLOAD

Related MP3 FLAC to Eclat - Eclat II (2005)
Feedback
All rights reserved.
WEBBG.com © 2000-2018