Mel Torme - Swingin On The Moon (1960)
MP3 FLAC WMA APE HD

Mel Torme - Swingin On The Moon (1960)

Artist: Mel Torme
Title Of Album: Swingin' On The Moon
Year Of Release: 1998
Label: Verve
Genre: Vocal Jazz
Quality: FLAC (*.flac)
Bitrate: lossless
Total Time: 38:19
Total Size: 218 MB
Tracklist:
01. Swingin' On The Moon (3:32)
02. Moonlight Cocktail (3:05)
03. I Wished On The Moon (3:57)
04. Moon Song (3:16)
05. How High The Moon (3:14)
06. Don't Let The Moon Get Away (2:39)
07. Blue Moon (3:46)
08. A Velvet Affair (3:01)
09. No Moon At All (2:39)
10. Moonlight In Vermont (3:06)
11. Oh, You Crazy Moon (3:16)
12. The Moon Was Yellow (2:46)
Mel Torme with Russell Garcia's Orchestra
Exact Audio Copy V0.99 prebeta 3 from 28. July 2007
Отчёт EAC об извлечении, выполненном 12. февраля 2011, 14:37
Mel Torme / Swingin' On The Moon
Дисковод: _NEC DVD_RW ND-3540A Adapter: 2 ID: 0
Режим чтения : Достоверность
Использование точного потока : Да
Отключение кэша аудио : Да
Использование указателей C2 : Нет
Коррекция смещения при чтении : 48
Способность читать области Lead-in и Lead-out : Нет
Заполнение пропущенных сэмплов тишиной : Да
Удаление блоков с тишиной в начале и конце : Нет
При вычислениях CRC использовались нулевые сэмплы : Да
Интерфейс : Установленный внешний ASPI-интерфейс
Выходной формат : Пользовательский кодировщик
Выбранный битрейт : 768 kBit/s
Качество : Высокий
Добавление ID3-тэга : Да
Утилита сжатия : C:Program FilesExact Audio CopyFLACFLAC.EXE
Дополнительные параметры : -6 -V -T "ARTIST=%a" -T "TITLE=%t" -T "ALBUM=%g" -T "DATE=%y" -T "TRACKNUMBER=%n" -T "GENRE=%m" -T "COMMENT=%e" %s -o %d
TOC извлечённого CD
Трек | Старт | Длительность | Начальный сектор | Конечный сектор
---------------------------------------------------------------------
1 | 0:00.00 | 3:32.22 | 0 | 15921
2 | 3:32.22 | 3:04.73 | 15922 | 29794
3 | 6:37.20 | 3:56.70 | 29795 | 47564
4 | 10:34.15 | 3:16.22 | 47565 | 62286
5 | 13:50.37 | 3:13.60 | 62287 | 76821
6 | 17:04.22 | 2:39.28 | 76822 | 88774
7 | 19:43.50 | 3:46.10 | 88775 | 105734
8 | 23:29.60 | 3:00.67 | 105735 | 119301
9 | 26:30.52 | 2:39.30 | 119302 | 131256
10 | 29:10.07 | 3:05.45 | 131257 | 145176
11 | 32:15.52 | 3:16.13 | 145177 | 159889
12 | 35:31.65 | 2:46.02 | 159890 | 172341
Характеристики диапазона извлечения и сообщения об ошибках
Выбранный диапазон
Имя файла C:Documents and SettingsМишаМои документыMel Torme - Swingin' On The MoonMel Torme - Swingin' On The Moon.wav
Пиковый уровень 99.9 %
Качество диапазона 99.9 %
CRC копии 529714F2
Копирование... OK
Ошибок не произошло
AccurateRip: сводка
Трек 1 точное извлечение (доверие 2) [69259098]
Трек 2 точное извлечение (доверие 2) [039A4698]
Трек 3 точное извлечение (доверие 2) [C5BE54D4]
Трек 4 точное извлечение (доверие 2) [8809A082]
Трек 5 точное извлечение (доверие 2) [94D46093]
Трек 6 точное извлечение (доверие 2) [E2508266]
Трек 7 точное извлечение (доверие 2) [09441F9B]
Трек 8 точное извлечение (доверие 2) [04305155]
Трек 9 точное извлечение (доверие 2) [F95ACA80]
Трек 10 точное извлечение (доверие 2) [357E06BB]
Трек 11 точное извлечение (доверие 2) [F1AEBD6D]
Трек 12 точное извлечение (доверие 2) [CD086CB9]
Все треки извлечены точно
Конец отчёта




Alternative download links

Hotfile.com

Related MP3 FLAC to Mel Torme - Swingin On The Moon (1960)
Feedback
All rights reserved.
WEBBG.com © 2000-2018