Flaming Row - Elinoire (2011)
MP3 FLAC WMA APE HD

Flaming Row - Elinoire (2011)

Artist: Flaming Row
Title Of Album: Elinoire
Year Of Release: 2011
Label: Progressive Promotion Records
Genre: Progressive Rock, Metal
Quality: FLAC (image+.cue) + log
Bitrate: Lossless
Total Time: 01:19:53
Total Size: 590 Mb
FLAMING ROW is a band-project formed by the german musician Martin Schnella (Steel Protector, Cast In Silence) in 2008. His formaly idea was creating a concept album with many different musicians, especially singers, female and male. Schnella wrote a lot of music for FLAMING ROW and put it together to complete songs. Because of his big influence of different styles of music, FLAMING ROW does not contest just one genre. So there is a mixture of Prog Metal/Rock, Mainstream, Metal and powerful ballads inside FLAMING ROW.
Tracklist:
01. Elinoire's Theme 01:35
02. Initiation Fugato 02:04
03. Overture 03:04
04. First Day 04:09
05. Nightingales Chirp 04:01
06. Do You Like Country Grandpa? 02:38
07. Lea's Delivery 07:54
08. Elinoire 05:34
09. Rage Of Despair 05:51
10. Adam's Theme 04:23
11. Neglected Garden 03:01
12. Time Mirror 05:46
13. Watershed 01:52
14. Review 05:23
15. Unearth The Truth 06:04
16. Father's Theme 00:29
17. Farewell 02:29
18. A Place To Review Your Soul 13:28
Exact Audio Copy V0.99 prebeta 5 from 4. May 2009
EAC extraction logfile from 17. August 2011, 9:26
Flaming Row / Elinoire
Used drive : _NEC DVD_RW ND-3540A Adapter: 0 ID: 0
Read mode : Secure
Utilize accurate stream : Yes
Defeat audio cache : Yes
Make use of C2 pointers : No
Read offset correction : 48
Overread into Lead-In and Lead-Out : No
Fill up missing offset samples with silence : Yes
Delete leading and trailing silent blocks : No
Null samples used in CRC calculations : Yes
Used interface : Native Win32 interface for Win NT & 2000
Used output format : User Defined Encoder
Selected bitrate : 40 kBit/s
Quality : High
Add ID3 tag : No
Command line compressor : C:Program FilesExact Audio CopyFLAC.EXE
Additional command line options : -6 -V %s
TOC of the extracted CD
Track | Start | Length | Start sector | End sector
---------------------------------------------------------
1 | 0:00.00 | 1:35.09 | 0 | 7133
2 | 1:35.09 | 2:04.05 | 7134 | 16438
3 | 3:39.14 | 3:04.57 | 16439 | 30295
4 | 6:43.71 | 4:09.36 | 30296 | 49006
5 | 10:53.32 | 4:01.27 | 49007 | 67108
6 | 14:54.59 | 2:38.29 | 67109 | 78987
7 | 17:33.13 | 7:54.34 | 78988 | 114571
8 | 25:27.47 | 5:34.00 | 114572 | 139621
9 | 31:01.47 | 5:51.68 | 139622 | 166014
10 | 36:53.40 | 4:23.24 | 166015 | 185763
11 | 41:16.64 | 3:01.11 | 185764 | 199349
12 | 44:18.00 | 5:46.41 | 199350 | 225340
13 | 50:04.41 | 1:52.47 | 225341 | 233787
14 | 51:57.13 | 5:23.66 | 233788 | 258078
15 | 57:21.04 | 6:04.71 | 258079 | 285449
16 | 63:26.00 | 0:29.07 | 285450 | 287631
17 | 63:55.07 | 2:29.74 | 287632 | 298880
18 | 66:25.06 | 13:28.03 | 298881 | 359483
Range status and errors
Selected range
Filename E:Flaming Row - 2011 - Elinoire {snecy.moole.ru}Flaming Row - Elinoire.wav
Peak level 98.9 %
Range quality 100.0 %
Copy CRC 5A067077
Copy OK
No errors occurred
AccurateRip summary
Track 1 not present in database
Track 2 not present in database
Track 3 not present in database
Track 4 not present in database
Track 5 not present in database
Track 6 not present in database
Track 7 not present in database
Track 8 not present in database
Track 9 not present in database
Track 10 not present in database
Track 11 not present in database
Track 12 not present in database
Track 13 not present in database
Track 14 not present in database
Track 15 not present in database
Track 16 not present in database
Track 17 not present in database
Track 18 not present in database
None of the tracks are present in the AccurateRip database
End of status report
FileSonic
Wupload



Alternative download links

DOWNLOAD

Related MP3 FLAC to Flaming Row - Elinoire (2011)
Feedback
All rights reserved.
WEBBG.com © 2000-2018