Logic? - The Hierarchy (2010)
MP3 FLAC WMA APE HD

Logic? - The Hierarchy (2010)

  • Genre: Music, Jazz, FLAC / APE
  • Formats: MP3 FLAC WMA HD APE
  • Album Size: 1507 mb.
  • Archive: ZIP RAR
Artist: Logic?
Title Of Album: The Hierarchy
Year Of Release: 2010
Label: Logic
Genre: Jazz, Fusion
Quality: FLAC (Tracks,cue,log,scans)|MP3
Bitrate: lossless | 320kbps
Total Time: 64:02 min
Total Size: 389 mb/150 mb
TRACKLIST
01. North Gate
02. Abrakababra
03. Gavatron
04. Ella-gance
05. The Hierarchy
06. Makati
07. A Shade Of Jade Bass Intro
08. A Shade Of Jade
09. Broken
Personnel:
Glenn Cannon: Guitar
Tim Wilson: Saxophone,Flute,Clarinet
Dane Alderson: Bass
Ben Vanderwal: Drums
Dan Beasy: Trumpet,Flugel (2,4,6)
The Hierarchy, by the Australian fusion group Logic?, features nine original compositions by guitarist Glenn Cannon and saxophonist Tim Wilson which stem from from diverse musical influences, including New York style jazz/fusion, drum 'n' bass, Latin, classical, folk and pop music. Logic? has been making waves on the jazz/fusion scene since its inception in 1999. Based in Melbourne, Australia, the ensemble has developed its own unique, contemporary sound, while preserving the spontaneous and interactive approach of the jazz tradition. Logic's self titled debut album was released in 2002 and received glowing reviews and international airplay. Their follow-up album "The Waiting Game" was released in 2004. Their third album was entitled "Native Strut", which was released in 2008.
Exact Audio Copy V0.99 prebeta 5 from 4. May 2009
Archivo Log de extracciones desde 4. Noviembre 2010, 15:59
Logic? / The Hierarchy
Usar unidad : HL-DT-STDVDRAM GH22NS50 Adapter: 2 ID: 0
Modo de Lectura : Seguro
Utilizar Corriente Exacta : Sн
Descartar Audio cachй : No
Utilizar los punteros C2 : No
Correcciуn de Desplazamiento de Lectura/Escritura combinadas : 667
Sobreleer tanto en Lead-In como en Lead-Out : No
Rellenar las muestras faltantes con silencios : Sн
Eliminar silencios inicial y final : No
Se han usado muestras nulas en los cбlculos CRC : Sн
Interfaz usada : Interfaz ASPI externo instalado
Gestiуn de Gaps : Aсadido a la pista previa
Formato de Salida utilizado : Compresor definido por el usuario
Bitrate seleccionado : 768 kBit/s
Calidad : Alta
Aсadir Etiqueta ID3 : No
Compresor de linea de comandos : C:Archivos de programaExact Audio CopyFLACFLAC.EXE
Opciones adicionales en lнnea de comandos : -6 -V -T "ARTIST=%a" -T "TITLE=%t" -T "ALBUM=%g" -T "DATE=%y" -T "TRACKNUMBER=%n" -T "GENRE=%m" -T "COMMENT=%e" %s -o %d
Usar desplazamiento de compresiуn : 0
TOC del CD extraido
Pista | Inicio | Duraciуn | Sector inicial | Sector final
-------------------------------------------------------------
1 | 0:00.00 | 5:36.17 | 0 | 25216
2 | 5:36.17 | 9:49.53 | 25217 | 69444
3 | 15:25.70 | 6:35.41 | 69445 | 99110
4 | 22:01.36 | 9:26.42 | 99111 | 141602
5 | 31:28.03 | 6:21.60 | 141603 | 170237
6 | 37:49.63 | 6:31.04 | 170238 | 199566
7 | 44:20.67 | 1:48.41 | 199567 | 207707
8 | 46:09.33 | 8:19.14 | 207708 | 245146
9 | 54:28.47 | 9:32.05 | 245147 | 288051
Pista 1
Nombre de Archivo D:Incoming1. North Gate.wav
Longitud Pre-gap 0:00:02.00
Nivel Pico 94.7 %
Calidad de Pista 100.0 %
Copiar CRC 70D9FE20
Copia OK
Pista 2
Nombre de Archivo D:Incoming2. Abrakababra.wav
Longitud Pre-gap 0:00:00.66
Nivel Pico 96.4 %
Calidad de Pista 100.0 %
Copiar CRC 185E2DFA
Copia OK
Pista 3
Nombre de Archivo D:Incoming3. Gavatron.wav
Longitud Pre-gap 0:00:01.18
Nivel Pico 96.4 %
Calidad de Pista 100.0 %
Copiar CRC E02026C9
Copia OK
Pista 4
Nombre de Archivo D:Incoming4. Ella-gance.wav
Longitud Pre-gap 0:00:00.22
Nivel Pico 96.1 %
Calidad de Pista 100.0 %
Copiar CRC A27E263C
Copia OK
Pista 5
Nombre de Archivo D:Incoming5. The Hierarchy.wav
Longitud Pre-gap 0:00:01.02
Nivel Pico 96.4 %
Calidad de Pista 100.0 %
Copiar CRC 25A43093
Copia OK
Pista 6
Nombre de Archivo D:Incoming6. Makati.wav
Longitud Pre-gap 0:00:01.15
Nivel Pico 96.4 %
Calidad de Pista 100.0 %
Copiar CRC AEEAD446
Copia OK
Pista 7
Nombre de Archivo D:Incoming7. A Shade Of Jade Bass Intro.wav
Longitud Pre-gap 0:00:01.04
Nivel Pico 54.1 %
Calidad de Pista 100.0 %
Copiar CRC 1D45E7D9
Copia OK
Pista 8
Nombre de Archivo D:Incoming8. A Shade Of Jade.wav
Nivel Pico 96.4 %
Calidad de Pista 100.0 %
Copiar CRC A9FA973E
Copia OK
Pista 9
Nombre de Archivo D:Incoming9. Broken.wav
Longitud Pre-gap 0:00:00.27
Nivel Pico 96.4 %
Calidad de Pista 100.0 %
Copiar CRC 728878F7
Copia OK
Sin Errores
Final del Informe
Download
If links are broken please send me PM



Alternative download links

Uploaded

Related MP3 FLAC to Logic? - The Hierarchy (2010)
Feedback
All rights reserved.
WEBBG.com © 2000-2018