Terri Lyne Carrington - The Mosaic Project (2011)
MP3 FLAC WMA APE HD

Terri Lyne Carrington - The Mosaic Project (2011)

Artist: Terri Lyne Carrington
Title Of Album: The Mosaic Project
Year Of Release: 2011
Label: Concord Jazz
Genre: Jazz, Jazz-Funk, Soul-Jazz
Quality: FLAC (Tracks,cue,log,scans)|MP3
Bitrate: lossless & 320kbps
Total Time: 01:11:47 min
Total Size: 465 mb/173 mb
TRACKLIST
1. Transformation
2. I Got Lost In His Arms
3. Michelle
4. Magic And Music
5. Echo
6. Simply Beautiful
7. Unconditional Love
8. Wistful
9. Crayola
10. Soul Talk
11. Mosaic Triad
12. Insomniac
13. Show Me A Sign
14. Sisters On The Rise (A Transformation)
Anyone who caught American drummer Terri Lyne Carrington's performance at the recent Barbican show featuring Dianne Reeves, Angelique Kidjo and Lizz Wright will want to check out this star-packed session. Like the Barbican gig, its focus is women's jazz-making. Here, however, there is a much bigger cast, including Reeves, pianist Geri Allen, Cassandra Wilson, Esperanza Spalding, Gretchen Parlato, Nona Hendryx, saxist Tineke Postma and more. It has a unifying historical and social agenda – but it's a discreet one, and the music is certainly the priority. Hendryx's anthemic Transformation opens the show, with the composer's soulful declarations warmly shaded by Ingrid Jensen's flugelhorn. Parlato's diametrically different and resonantly intimate accounts of I Got Lost in His Arms and the Beatles' Michelle follow. Reeves's rich, gospelly sound rises up over an old Angela Davis speech on the legacy of slavery; Wilson's earthy low tones ease through Allen's Unconditional Love; Jensen and Postma whirl through the postbop swinger Insomniac; and the bonus track Sisters on the Rise makes a slightly tokenistic nod towards hip-hop. This is, by definition, song-rooted and quite pop-angled jazz, but full of eager spontaneity.
Exact Audio Copy V1.0 beta 1 from 15. November 2010
EAC extraction logfile from 29. July 2011, 18:54
Teri Lyne Carrington / The Mosaic Project
Used drive : PIONEER DVD-RW DVR-K17LF Adapter: 2 ID: 0
Read mode : Secure
Utilize accurate stream : Yes
Defeat audio cache : Yes
Make use of C2 pointers : No
Read offset correction : 48
Overread into Lead-In and Lead-Out : No
Fill up missing offset samples with silence : Yes
Delete leading and trailing silent blocks : No
Null samples used in CRC calculations : Yes
Used interface : Native Win32 interface for Win NT & 2000
Gap handling : Appended to previous track
Used output format : User Defined Encoder
Selected bitrate : 1024 kBit/s
Quality : High
Add ID3 tag : No
Command line compressor : C:Program FilesFLACflac.exe
Additional command line options : -8 -V -T "artist=%a" -T "title=%t" -T "album=%g" -T "date=%y" -T "tracknumber=%n" -T "genre=%m" -T "comment=EAC 1.1beta1/ FLAC 1.1.0 q6" %s
TOC of the extracted CD
Track | Start | Length | Start sector | End sector
---------------------------------------------------------
1 | 0:00.00 | 5:33.55 | 0 | 25029
2 | 5:33.55 | 4:58.29 | 25030 | 47408
3 | 10:32.09 | 6:52.74 | 47409 | 78382
4 | 17:25.08 | 3:45.32 | 78383 | 95289
5 | 21:10.40 | 7:14.17 | 95290 | 127856
6 | 28:24.57 | 4:30.70 | 127857 | 148176
7 | 32:55.52 | 5:56.15 | 148177 | 174891
8 | 38:51.67 | 4:48.34 | 174892 | 196525
9 | 43:40.26 | 4:29.35 | 196526 | 216735
10 | 48:09.61 | 5:56.00 | 216736 | 243435
11 | 54:05.61 | 5:59.59 | 243436 | 270419
12 | 60:05.45 | 5:13.25 | 270420 | 293919
13 | 65:18.70 | 2:28.33 | 293920 | 305052
14 | 67:47.28 | 3:59.45 | 305053 | 323022
Track 1
Filename C:ripTeri Lyne Carrington - The Mosaic Project 1. Teri Lyne Carrington - Transformation feat. Nona Hendryx.wav
Pre-gap length 0:00:02.00
Peak level 97.5 %
Extraction speed 2.8 X
Track quality 99.9 %
Test CRC 94D9E50F
Copy CRC 94D9E50F
Track not present in AccurateRip database
Copy OK
Track 2
Filename C:ripTeri Lyne Carrington - The Mosaic Project 2. Teri Lyne Carrington - I Got Lost In His Arms feat. Gretchen Parlato.wav
Peak level 98.4 %
Extraction speed 3.3 X
Track quality 100.0 %
Test CRC D784681E
Copy CRC D784681E
Track not present in AccurateRip database
Copy OK
Track 3
Filename C:ripTeri Lyne Carrington - The Mosaic Project 3. Teri Lyne Carrington - Michelle feat. Gretchen Parlato.wav
Peak level 99.7 %
Extraction speed 3.7 X
Track quality 100.0 %
Test CRC 9946121A
Copy CRC 9946121A
Track not present in AccurateRip database
Copy OK
Track 4
Filename C:ripTeri Lyne Carrington - The Mosaic Project 4. Teri Lyne Carrington - Magic And Music feat. Teri Lyne Carrington.wav
Peak level 97.1 %
Extraction speed 3.7 X
Track quality 100.0 %
Test CRC C4933D4E
Copy CRC C4933D4E
Track not present in AccurateRip database
Copy OK
Track 5
Filename C:ripTeri Lyne Carrington - The Mosaic Project 5. Teri Lyne Carrington - Echo feat. Angela Davis & Dianne Reeves.wav
Peak level 98.6 %
Extraction speed 4.3 X
Track quality 100.0 %
Test CRC 417411FE
Copy CRC 417411FE
Track not present in AccurateRip database
Copy OK
Track 6
Filename C:ripTeri Lyne Carrington - The Mosaic Project 6. Teri Lyne Carrington - Simply Beautiful feat. Cassandra Wilson.wav
Peak level 98.6 %
Extraction speed 4.3 X
Track quality 100.0 %
Test CRC A515A553
Copy CRC A515A553
Track not present in AccurateRip database
Copy OK
Track 7
Filename C:ripTeri Lyne Carrington - The Mosaic Project 7. Teri Lyne Carrington - Unconditional Love.wav
Peak level 98.4 %
Extraction speed 4.6 X
Track quality 100.0 %
Test CRC 2483D80D
Copy CRC 2483D80D
Track not present in AccurateRip database
Copy OK
Track 8
Filename C:ripTeri Lyne Carrington - The Mosaic Project 8. Teri Lyne Carrington - Wistful.wav
Peak level 97.5 %
Extraction speed 4.7 X
Track quality 100.0 %
Test CRC 3BE3EF0F
Copy CRC 3BE3EF0F
Track not present in AccurateRip database
Copy OK
Track 9
Filename C:ripTeri Lyne Carrington - The Mosaic Project 9. Teri Lyne Carrington - Crayola feat. Esperanza Spalding.wav
Peak level 97.9 %
Extraction speed 4.8 X
Track quality 100.0 %
Test CRC DDDC612B
Copy CRC DDDC612B
Track not present in AccurateRip database
Copy OK
Track 10
Filename C:ripTeri Lyne Carrington - The Mosaic Project 10. Teri Lyne Carrington - Soul Talk feat. Dee Dee Bridgewater.wav
Peak level 98.6 %
Extraction speed 4.7 X
Track quality 99.9 %
Test CRC 158EB2A2
Copy CRC 158EB2A2
Track not present in AccurateRip database
Copy OK
Track 11
Filename C:ripTeri Lyne Carrington - The Mosaic Project 11. Teri Lyne Carrington - Mosaic Triad.wav
Peak level 98.4 %
Extraction speed 5.4 X
Track quality 100.0 %
Test CRC D78E2E45
Copy CRC D78E2E45
Track not present in AccurateRip database
Copy OK
Track 12
Filename C:ripTeri Lyne Carrington - The Mosaic Project 12. Teri Lyne Carrington - Insomniac.wav
Peak level 98.2 %
Extraction speed 5.5 X
Track quality 100.0 %
Test CRC 434E3373
Copy CRC 434E3373
Track not present in AccurateRip database
Copy OK
Track 13
Filename C:ripTeri Lyne Carrington - The Mosaic Project 13. Teri Lyne Carrington - Show Me A Sign feat. Carmen Lundy.wav
Peak level 97.9 %
Extraction speed 4.1 X
Track quality 99.9 %
Test CRC B494BEF0
Copy CRC B494BEF0
Track not present in AccurateRip database
Copy OK
Track 14
Filename C:ripTeri Lyne Carrington - The Mosaic Project 14. Teri Lyne Carrington - Sisters On The Rise (A Transformation) feat. Nona Hendryx & Teri Lyne.wav
Peak level 98.6 %
Extraction speed 5.4 X
Track quality 100.0 %
Test CRC F89ECF12
Copy CRC F89ECF12
Track not present in AccurateRip database
Copy OK
None of the tracks are present in the AccurateRip database
No errors occurred
End of status report
==== Log checksum 7245B9B179B5C370DFA51C0C05C883157D3ADCB200D7188E78899868976F5524 ====
Download
If links are broken please send me PM



Alternative download links

Uploaded

Related MP3 FLAC to Terri Lyne Carrington - The Mosaic Project (2011)
Feedback
All rights reserved.
WEBBG.com © 2000-2018