Kool The Gang - Open Sesame (2011)
MP3 FLAC WMA APE HD

Kool The Gang - Open Sesame (2011)

Artist: Kool & The Gang
Title Of Album: Open Sesame
Year Of Release: 2011
Label: Big Break Records
Genre: funk, soul, jazz
Quality: FLAC (tracks+.cue) + log
Bitrate: Lossless
Total Time: 00:51:58
Total Size: 354 Mb
Digitally remastered and expanded edition of this 1976 album from the R&B/Funk legends including bonus tracks. This edition comes complete with liner notes including interviews and bonus material. Kool & The Gang need no introduction. They were the top selling Soul group of the '70s and '80s having sold over 70 million albums worldwide and have received countless awards.
Tracklist:
01. Open Sesame (Part 1) (3:49)
02. Gift Of Love (4:10)
03. Little Children (5:30)
04. All Night Long (3:56)
05. Whisper Softly (6:06)
06. Super Band (4:56)
07. L-O-V-E (3:26)
08. Sunshine (3:30)
09. Open Sesame (Part 2) (4:28)
10. Super Band (Single Version) (3:22)
11. Open Sesame (12' Disco Version) (8:44)
Exact Audio Copy V0.99 prebeta 5 from 4. May 2009
EAC extraction logfile from 23. May 2011, 15:08
Kool & The Gang / Open Sesame
Used drive : HP DVD Writer 300n Adapter: 3 ID: 0
Read mode : Secure
Utilize accurate stream : Yes
Defeat audio cache : Yes
Make use of C2 pointers : No
Read offset correction : 48
Overread into Lead-In and Lead-Out : No
Fill up missing offset samples with silence : Yes
Delete leading and trailing silent blocks : No
Null samples used in CRC calculations : Yes
Used interface : Installed external ASPI interface
Gap handling : Appended to previous track
Used output format : User Defined Encoder
Selected bitrate : 128 kBit/s
Quality : High
Add ID3 tag : No
Command line compressor : C:Exact Audio CopyFlacflac.exe
Additional command line options : -8 -A tukey(0.25) -A gauss(0.1875) -b 4096 -V -T "artist=%a" -T "title=%t" -T "album=%g" -T "date=%y" -T "tracknumber=%n" -T "genre=%m" %s --sector-align
TOC of the extracted CD
Track | Start | Length | Start sector | End sector
---------------------------------------------------------
1 | 0:00.00 | 3:48.39 | 0 | 17138
2 | 3:48.39 | 4:09.60 | 17139 | 35873
3 | 7:58.24 | 5:30.09 | 35874 | 60632
4 | 13:28.33 | 3:55.64 | 60633 | 78321
5 | 17:24.22 | 6:06.28 | 78322 | 105799
6 | 23:30.50 | 4:56.29 | 105800 | 128028
7 | 28:27.04 | 3:25.60 | 128029 | 143463
8 | 31:52.64 | 3:30.36 | 143464 | 159249
9 | 35:23.25 | 4:28.06 | 159250 | 179355
10 | 39:51.31 | 3:22.06 | 179356 | 194511
11 | 43:13.37 | 8:44.06 | 194512 | 233817
Track 1
Filename F:Music PlaceFLAC & WAVKOOL & THE GANGKool & The Gang - Open Sesame 1. Kool & The Gang - Open Sesame (Part 1).wav
Pre-gap length 0:00:02.00
Peak level 96.6 %
Track quality 100.0 %
Test CRC 935C64D8
Copy CRC 935C64D8
Track not present in AccurateRip database
Copy OK
Track 2
Filename F:Music PlaceFLAC & WAVKOOL & THE GANGKool & The Gang - Open Sesame 2. Kool & The Gang - Gift Of Love.wav
Pre-gap length 0:00:01.97
Peak level 96.6 %
Track quality 100.0 %
Test CRC DC8E4359
Copy CRC DC8E4359
Track not present in AccurateRip database
Copy OK
Track 3
Filename F:Music PlaceFLAC & WAVKOOL & THE GANGKool & The Gang - Open Sesame 3. Kool & The Gang - Little Children.wav
Pre-gap length 0:00:01.97
Peak level 96.6 %
Track quality 100.0 %
Test CRC 2C60A4FF
Copy CRC 2C60A4FF
Track not present in AccurateRip database
Copy OK
Track 4
Filename F:Music PlaceFLAC & WAVKOOL & THE GANGKool & The Gang - Open Sesame 4. Kool & The Gang - All Night Long.wav
Pre-gap length 0:00:01.98
Peak level 96.6 %
Track quality 100.0 %
Test CRC D62455A1
Copy CRC D62455A1
Track not present in AccurateRip database
Copy OK
Track 5
Filename F:Music PlaceFLAC & WAVKOOL & THE GANGKool & The Gang - Open Sesame 5. Kool & The Gang - Whisper Softly.wav
Pre-gap length 0:00:01.97
Peak level 96.6 %
Track quality 100.0 %
Test CRC 3ADA86B6
Copy CRC 3ADA86B6
Track not present in AccurateRip database
Copy OK
Track 6
Filename F:Music PlaceFLAC & WAVKOOL & THE GANGKool & The Gang - Open Sesame 6. Kool & The Gang - Super Band.wav
Pre-gap length 0:00:01.97
Peak level 96.6 %
Track quality 100.0 %
Test CRC AF5BF70F
Copy CRC AF5BF70F
Track not present in AccurateRip database
Copy OK
Track 7
Filename F:Music PlaceFLAC & WAVKOOL & THE GANGKool & The Gang - Open Sesame 7. Kool & The Gang - L-O-V-E.wav
Pre-gap length 0:00:01.98
Peak level 96.6 %
Track quality 100.0 %
Test CRC 3CEC7FD3
Copy CRC 3CEC7FD3
Track not present in AccurateRip database
Copy OK
Track 8
Filename F:Music PlaceFLAC & WAVKOOL & THE GANGKool & The Gang - Open Sesame 8. Kool & The Gang - Sunshine.wav
Pre-gap length 0:00:01.96
Peak level 96.6 %
Track quality 100.0 %
Test CRC 90072385
Copy CRC 90072385
Track not present in AccurateRip database
Copy OK
Track 9
Filename F:Music PlaceFLAC & WAVKOOL & THE GANGKool & The Gang - Open Sesame 9. Kool & The Gang - Open Sesame (Part 2).wav
Pre-gap length 0:00:01.98
Peak level 96.6 %
Track quality 100.0 %
Test CRC D424EDF3
Copy CRC D424EDF3
Track not present in AccurateRip database
Copy OK
Track 10
Filename F:Music PlaceFLAC & WAVKOOL & THE GANGKool & The Gang - Open Sesame 10. Kool & The Gang - Super Band (Single Version).wav
Pre-gap length 0:00:01.97
Peak level 96.6 %
Track quality 100.0 %
Test CRC 56B4559A
Copy CRC 56B4559A
Track not present in AccurateRip database
Copy OK
Track 11
Filename F:Music PlaceFLAC & WAVKOOL & THE GANGKool & The Gang - Open Sesame 11. Kool & The Gang - Open Sesame (12' Disco Version).wav
Pre-gap length 0:00:01.98
Peak level 96.6 %
Track quality 100.0 %
Test CRC B1D329F0
Copy CRC B1D329F0
Track not present in AccurateRip database
Copy OK
None of the tracks are present in the AccurateRip database
No errors occurred
End of status report
FileSonic
Oron



Alternative download links

DOWNLOAD

Related MP3 FLAC to Kool The Gang - Open Sesame (2011)
Feedback
All rights reserved.
WEBBG.com © 2000-2018