Dexter Gordon - Our Man In Paris 2003 RVG Edition (1963)
MP3 FLAC WMA APE HD

Dexter Gordon - Our Man In Paris 2003 RVG Edition (1963)

  • Genre: Music, Jazz, FLAC / APE
  • Formats: MP3 FLAC WMA HD APE
  • Album Size: 1884 mb.
  • Archive: ZIP RAR
Artist: Dexter Gordon
Title Of Album: Our Man In Paris {2003 RVG Edition}
Year Of Release: 1963
Label: Blue Note
Genre: Bop, Hard Bop
Quality: FLAC (tracks+.cue) + log
Bitrate: Lossless
Total Time: 50:04
Total Size: 339 Mb
This 1963 date is titled for Dexter Gordon's living in self-imposed Parisian exile and recording there with two other exptriates and a French native. Along with Gordon, pianist Bud Powell and Kenny "Klook" Clarke were living in the City of Lights and were joined by the brilliant French bassman Pierre Michelot. This is a freewheeling bop date with the band working out on such categoric standards as "Scrapple from the Apple," and "A Night in Tunisia." In addition, American vernacular tunes such as "Willow Weep for Me" and "Stairway to the Stars" are included. Gordon is at the very top of his game here. His playing is crisp, tight, and full of playful fury. Powell, who at this stage of his life was almost continually plagued by personal problems, never sounded better than he does in this session. His playing is a tad more laid-back here, but is nonetheless full of the brilliant harmonic asides and incendiary single-note runs he is legendary for. The rhythm section is close-knit and stop-on-a-dime accurate. This Rudy Van Gelder-remastered edition of the CD features the same extras the original CD issue did, but with marginally improved sound; these were derived from two-track masters anyway so they already sound great. If you aren't an audiophile you won't hear the difference and this is a waste of money; it's another blatant attempt by Blue Note to get you to shell out hard-earned dollars for something you already have that's already very fine. If you're going to obsess until you can't stand it and break down anyway, then go ahead, get it over with. But the earlier CD release is plenty fine for most listeners, so no thank you Blue Note -- this CD is unnecessary.
Tracklist:
01. Scrapple from the Apple
02. Willow Weep for Me
03. Broadway
04. Stairway to the Stars
05. A Night in Tunisia
06. Our Love Is Here to Stay (bonus track)
07. Like Someone in Love (bonus track)
Exact Audio Copy V0.99 prebeta 5 from 4. May 2009
EAC extraction logfile from 3. May 2010, 14:59
Dexter Gordon / Our Man In Paris
Used drive : TSSTcorpCD/DVDW TS-H552L Adapter: 2 ID: 0
Read mode : Secure
Utilize accurate stream : Yes
Defeat audio cache : Yes
Make use of C2 pointers : No
Read offset correction : 6
Overread into Lead-In and Lead-Out : No
Fill up missing offset samples with silence : Yes
Delete leading and trailing silent blocks : No
Null samples used in CRC calculations : Yes
Used interface : Installed external ASPI interface
Gap handling : Appended to previous track
Used output format : User Defined Encoder
Selected bitrate : 1024 kBit/s
Quality : High
Add ID3 tag : No
Command line compressor : C:Program FilesFLACflac.exe
Additional command line options : -5 -V -T "ARTIST=%a" -T "TITLE=%t" -T "ALBUM=%g" -T "DATE=%y" -T "TRACKNUMBER=%n" -T "TOTALTRACKS=%x" -T "GENRE=%m" -T "ALBUMARTIST=%v" -T "ALBUM ARTIST=%v" -T "COMMENT=EAC Secure Mode, Test & Copy, AccurateRip, FLAC -5" %s
TOC of the extracted CD
Track | Start | Length | Start sector | End sector
---------------------------------------------------------
1 | 0:00.00 | 7:22.13 | 0 | 33162
2 | 7:22.13 | 8:47.07 | 33163 | 72694
3 | 16:09.20 | 6:44.51 | 72695 | 103045
4 | 22:53.71 | 6:57.23 | 103046 | 134343
5 | 29:51.19 | 8:15.28 | 134344 | 171496
6 | 38:06.47 | 5:39.12 | 171497 | 196933
7 | 43:45.59 | 6:17.66 | 196934 | 225274
Track 1
Filename D:EACDexter Gordon - Our Man In Paris {2003 BN Rudy Van Gelder REmaster}1 - Scrapple From The Apple.wav
Pre-gap length 0:00:02.00
Peak level 97.8 %
Track quality 100.0 %
Test CRC 1C80E025
Copy CRC 1C80E025
Cannot be verified as accurate (confidence 15) [C5033ED3], AccurateRip returned [7C26D7AF]
Copy OK
Track 2
Filename D:EACDexter Gordon - Our Man In Paris {2003 BN Rudy Van Gelder REmaster}2 - Willow Weep For Me.wav
Pre-gap length 0:00:02.72
Peak level 97.6 %
Track quality 100.0 %
Test CRC 245F8D83
Copy CRC 245F8D83
Cannot be verified as accurate (confidence 15) [FAFEFAB9], AccurateRip returned [EAAC23DC]
Copy OK
Track 3
Filename D:EACDexter Gordon - Our Man In Paris {2003 BN Rudy Van Gelder REmaster}3 - Broadway.wav
Pre-gap length 0:00:02.61
Peak level 97.9 %
Track quality 100.0 %
Test CRC AE017A2F
Copy CRC AE017A2F
Cannot be verified as accurate (confidence 15) [76A02BEC], AccurateRip returned [EEC232BC]
Copy OK
Track 4
Filename D:EACDexter Gordon - Our Man In Paris {2003 BN Rudy Van Gelder REmaster}4 - Stairway To The Stars.wav
Pre-gap length 0:00:02.48
Peak level 97.9 %
Track quality 100.0 %
Test CRC FCF32E3E
Copy CRC FCF32E3E
Cannot be verified as accurate (confidence 15) [D0D991AF], AccurateRip returned [F925A219]
Copy OK
Track 5
Filename D:EACDexter Gordon - Our Man In Paris {2003 BN Rudy Van Gelder REmaster}5 - A Night In Tunisia.wav
Pre-gap length 0:00:02.68
Peak level 97.9 %
Track quality 100.0 %
Test CRC B54EBBD3
Copy CRC B54EBBD3
Cannot be verified as accurate (confidence 15) [0659A2AE], AccurateRip returned [2C239675]
Copy OK
Track 6
Filename D:EACDexter Gordon - Our Man In Paris {2003 BN Rudy Van Gelder REmaster}6 - Our Love Is Here To Stay (bonus track).wav
Pre-gap length 0:00:02.72
Peak level 97.9 %
Track quality 100.0 %
Test CRC 4EA10BCC
Copy CRC 4EA10BCC
Cannot be verified as accurate (confidence 15) [701375C2], AccurateRip returned [47865246]
Copy OK
Track 7
Filename D:EACDexter Gordon - Our Man In Paris {2003 BN Rudy Van Gelder REmaster}7 - Like Someone In Love (bonus track).wav
Pre-gap length 0:00:02.17
Peak level 97.9 %
Track quality 99.9 %
Test CRC 26475B50
Copy CRC 26475B50
Cannot be verified as accurate (confidence 15) [75E408DE], AccurateRip returned [D7C5EE89]
Copy OK
No tracks could be verified as accurate
You may have a different pressing from the one(s) in the database
No errors occurred
End of status report
FileSonic
Turbobit



Alternative download links

DOWNLOAD

Related MP3 FLAC to Dexter Gordon - Our Man In Paris 2003 RVG Edition (1963)
Feedback
All rights reserved.
WEBBG.com © 2000-2018