Osibisa - Welcome Home (1997)
MP3 FLAC WMA APE HD

Osibisa - Welcome Home (1997)

Artist: Osibisa
Title Of Album: Welcome Home
Year Of Release: December 12, 1997
Label: Aim Records
Genre: Afro-Rock, Afro-Pop, WorldBeat , Funk/Soul, Tribal, Disco
Quality: WAV (IMG+CUE+LOG) / MP3
Bitrate: Lossless/320kbps
Total Time: 40:45 min
Total Size: 344mb / 130mb (+5% rec.)
Tracklist:
1. Sunshine Day (5:00)
2. Welcome Home (4:22)
3. Densu (5:23)
4. Chooboi (Heave Ho!) (5:10)
5. Do It (Like It Is) (4:24)
6. Right Now (3:11)
7. Seaside - Meditation (5:18)
8. Uhuru (3:27)
9. Kolomashie (4:35)
10. Bum To Bum
11. Agoro
12. Sunshine Day (Single Edit)
Exact Audio Copy V0.99 prebeta 4 from 23. January 2008
EAC extraction logfile from 24. March 2008, 11:01
Osibisa / Welcome Home
Used drive : PLEXTOR DVDR PX-810SA Adapter: 2 ID: 0
Read mode : Secure
Utilize accurate stream : Yes
Defeat audio cache : Yes
Make use of C2 pointers : No
Read offset correction : 48
Overread into Lead-In and Lead-Out : No
Fill up missing offset samples with silence : Yes
Delete leading and trailing silent blocks : No
Null samples used in CRC calculations : Yes
Used interface : Native Win32 interface for Win NT & 2000
Used output format : User Defined Encoder
Selected bitrate : 768 kBit/s
Quality : High
Add ID3 tag : No
Command line compressor : C:Program Files (x86)Exact Audio Copywavpack-4.41wavpack.exe
Additional command line options : -w "Artist=%a" -w "Title=%t" -w "Album=%g" -w "Year=%y" -w "Track=%n" -w "Genre=%m" -h %s %d
TOC of the extracted CD
Track | Start | Length | Start sector | End sector
---------------------------------------------------------
1 | 0:00.00 | 4:59.47 | 0 | 22471
2 | 4:59.47 | 4:20.10 | 22472 | 41981
3 | 9:19.57 | 5:23.65 | 41982 | 66271
4 | 14:43.47 | 5:09.13 | 66272 | 89459
5 | 19:52.60 | 4:24.12 | 89460 | 109271
6 | 24:16.72 | 3:11.63 | 109272 | 123659
7 | 27:28.60 | 5:16.30 | 123660 | 147389
8 | 32:45.15 | 3:27.60 | 147390 | 162974
9 | 36:13.00 | 4:39.47 | 162975 | 183946
10 | 40:52.47 | 5:43.20 | 183947 | 209691
11 | 46:35.67 | 4:01.30 | 209692 | 227796
12 | 50:37.22 | 3:13.15 | 227797 | 242286
Range status and errors
Selected range
Filename C:Documents and SettingsAdministratorDesktopOsibisa - Welcome HomeOsibisa - Welcome Home.wav
Peak level 96.7 %
Range quality 100.0 %
Copy CRC E9376A96
Copy OK
No errors occurred

AccurateRip summary

Track 1 not present in database
Track 2 not present in database
Track 3 not present in database
Track 4 not present in database
Track 5 not present in database
Track 6 not present in database
Track 7 not present in database
Track 8 not present in database
Track 9 not present in database
Track 10 not present in database
Track 11 not present in database
Track 12 not present in database

None of the tracks are present in the AccurateRip database
End of status report
Группа образована в 1970 году в Великобритании.
Тедди Осей — саксофон, флейта, вокал
Сол Амарфио — перкуссия
Мак Тонто — труба
Роберт Бейли — клавишные, ударные
Вендель Ричардсон — гитара, вокал
Спартакус Ар — бас-гитара
Лоти Ласиси Амао — саксофон
Osibisa не первой начала исполнять фьюжн африканской народной музыки и западноевропейского поп-рока, однако эта группа стала первой, чья популярность на Западе была выше, чем на родине, в Африке. В состав группы входили как африканские, так и карибские музыканты.
Организовал Osibisa Т.Осей, который в конце 50-х — начале 60-х играл на саксофоне в ганской группе The Comets. В 1962 году он приехал учиться в Англию и поступил в Лондонскую консерваторию. Т. Осей играл в различных лондонских группах, в том числе и в популярной Cat's Paw, где он познакомился с будущими коллегами по Osibisa. В 1969 году он и Сол Амарфио написали музыку к фильму «Творец» и позже сформировали группу с нигерийским барабанщиком Реми Кабакой, но буквально через неделю после начала репетиций Кабака принял приглашение Джинджера Бейкера присоединиться к его группе Ginger Baker's Force.
В 1970 году Осей укомплектовал состав вест-индскими музыкантами В.Ричардсоном и Р. Бейли — новая группа получила название Osibisa, что на языке акан означает специфический музыкальный ритм. Демотейп группы получился настолько удачным, что компания Би-би-си начала транслировать вещи по радио еще до того, как Osibisa заполучили контракт на запись. Музыка Osibisa того периода представляла собой фьюжн африканских полиритмических ударных, рок-гитары и клавишных риффов — ориентация на классический ритм-энд-блюз подчеркивалась выделенной духовой секцией, а сами песни исполнялись как на английском языке, так и на языке акан.
После ряда успешных концертов в элитарных лондонских клубах, Osibisa получили контракт от фирмы
МСА; дебютный Album продюсировал знаменитый Тони Висконти, и пластинка попала в британский Тор 10, а в США вышла в национальном хит-параде на 55-е место. 1971 год прошел в сплошных гастрольных поездках — Европа, Северная Америка, Африка, Ближний Восток и Австралия. Osibisa стали любимцами британского телевидения, концерты группы, в которых принимали участие танцоры, неизменно привлекали публику — раз в неделю музыканты выступали в телепрограмме Би-би-си, а росту популярности способствовала новая музыка к фильму «Superfly TNT»; кроме того, авторитет группы вырос, когда Арт Гарфанкел исполнил кавервершн «Woyaya», автором которой был Амарфио.
К 1973 году Osibisa подписали контракт с Warner Bros.; к тому моменту половина первоначального состава покинула группу; Ричардсон принял предложение Пола Кософфа и отправился на гастроли в США вместе с группой Free, он также записал сольный Album, но в 1975 году вновь присоединился к Osibisa. В 1975 году музыканты перебрались на Антильские острова, где подписали новый контракт с местным филиалом фирмы Island Records — тогда же был выпущен Album «Welcome Home», в который вошел их самый сильный хит «Sunshine Day» (17-е место в Великобритании). В 1976 году Osibisa распались, однако в 1980 году Осей, Амарфио и Тонто набрали сейшнменов и записали неплохой Album «Mystic Nights».
Download




Alternative download links

Uploaded

Related MP3 FLAC to Osibisa - Welcome Home (1997)
Feedback
All rights reserved.
WEBBG.com © 2000-2018