Preservation Hall Jazz Band - The Best of Preservation Hall Jazz Band (1989)
MP3 FLAC WMA APE HD

Preservation Hall Jazz Band - The Best of Preservation Hall Jazz Band (1989)

Artist: Preservation Hall Jazz Band
Title Of Album: The Best Preservation Hall Jazz Band
Year Of Release: 1989
Label: CBS Records
Genre: Jazz, New Orleans Jazz, Dixieland
Quality: Flac(Image+Cue+Log)/mp3
Bitrate: Lossless/320kbps
Total Time: 76:41min
Total Size: 374mb/180mb
Tracklist:
1. Tiger Rag Preservation Hall Jazz Band 7:45
2. Mood Indigo (Instrumental) Preservation Hall Jazz Band 5:02
3. The Buckets Got a Hole in It (Voice) Preservation Hall Jazz Band 5:06
4. His Eye Is On The Sparrow (Instrumental) Preservation Hall Jazz Band 5:03
5. St. Louis Blues (Voice) Preservation Hall Jazz Band 5:47
6. Georgia On My Mind Preservation Hall Jazz Band 6:59
7. Careless Love (Instrumental) Preservation Hall Jazz Band 5:04
8. Precious Lord (Voice) Preservation Hall Jazz Band 5:39
9. Joe Avery (Instrumental) Preservation Hall Jazz Band 6:41
10. I Ain't Got Nobody (Voice) Preservation Hall Jazz Band 4:50
11. Shake It and Break It (Voice) Preservation Hall Jazz Band 4:48
12. Just A Closer Walk With Thee, Part ll (Instrumental) Preservation Hall Jazz Band 5:45
13. When The Saints Go Marchin' In
Exact Audio Copy V0.99 prebeta 4 from 23. January 2008
Отчёт EAC об извлечении, выполненном 20. октября 2009, 20:25
Preservation Hall Jazz Band / Best of Preservation Hall Jazz Band
Дисковод: HL-DT-STDVDRAM GH20NS10 Adapter: 2 ID: 0
Режим чтения : Достоверность
Использование точного потока : Да
Отключение кэша аудио : Да
Использование указателей C2 : Нет
Коррекция смещения при чтении : 667
Способность читать области Lead-in и Lead-out : Нет
Заполнение пропущенных сэмплов тишиной : Да
Удаление блоков с тишиной в начале и конце : Нет
При вычислениях CRC использовались нулевые сэмплы : Да
Интерфейс : Встроенный Win32-интерфейс для Win NT/2000
Выходной формат : Пользовательский кодировщик
Выбранный битрейт : 1024 kBit/s
Качество : Высокий
Добавление ID3-тэга : Нет
Утилита сжатия : C:Program FilesExact Audio CopyFLACFLAC.EXE
Дополнительные параметры : -6 -V -T "ARTIST=%a" -T "TITLE=%t" -T "ALBUM=%g" -T "DATE=%y" -T "TRACKNUMBER=%n" -T "GENRE=%m" -T "COMMENT=%e" %s -o %d
TOC извлечённого CD
Трек | Старт | Длительность | Начальный сектор | Конечный сектор
---------------------------------------------------------------------
1 | 0:00.00 | 7:48.10 | 0 | 35109
2 | 7:48.10 | 5:02.02 | 35110 | 57761
3 | 12:50.12 | 5:06.00 | 57762 | 80711
4 | 17:56.12 | 5:02.73 | 80712 | 103434
5 | 22:59.10 | 5:48.02 | 103435 | 129536
6 | 28:47.12 | 6:59.38 | 129537 | 160999
7 | 35:46.50 | 5:03.72 | 161000 | 183796
8 | 40:50.47 | 5:39.00 | 183797 | 209221
9 | 46:29.47 | 6:42.03 | 209222 | 239374
10 | 53:11.50 | 4:50.00 | 239375 | 261124
11 | 58:01.50 | 4:49.00 | 261125 | 282799
12 | 62:50.50 | 5:45.72 | 282800 | 308746
13 | 68:36.47 | 8:05.25 | 308747 | 345146
Характеристики диапазона извлечения и сообщения об ошибках
Выбранный диапазон
Имя файла D:testPreservation Hall Jazz BandPreservation Hall Jazz Band - Best of Preservation Hall Jazz Band.wav
Пиковый уровень 97.7 %
Качество диапазона 100.0 %
CRC теста 59875AC2
CRC копии 59875AC2
Копирование... OK
Ошибок не произошло

AccurateRip: сводка

Трек 1 точное извлечение (доверие 14) [8A63AB96]
Трек 2 точное извлечение (доверие 13) [1D78CECE]
Трек 3 точное извлечение (доверие 13) [DA108BCE]
Трек 4 точное извлечение (доверие 13) [D0CC8447]
Трек 5 точное извлечение (доверие 13) [5E5694C4]
Трек 6 точное извлечение (доверие 13) [E5BA0934]
Трек 7 точное извлечение (доверие 13) [6D587DB4]
Трек 8 точное извлечение (доверие 13) [461E5DE7]
Трек 9 точное извлечение (доверие 13) [0E723862]
Трек 10 точное извлечение (доверие 13) [C495062A]
Трек 11 точное извлечение (доверие 13) [CAE0B39C]
Трек 12 точное извлечение (доверие 13) [A49DADFF]
Трек 13 точное извлечение (доверие 12) [6E3A1BBD]

Все треки извлечены точно
Конец отчёта
Download




Alternative download links

Fileserve

Related MP3 FLAC to Preservation Hall Jazz Band - The Best of Preservation Hall Jazz Band (1989)
Feedback
All rights reserved.
WEBBG.com © 2000-2018