Savior From Anger - Lost in the Darkness (2009)
MP3 FLAC WMA APE HD

Savior From Anger - Lost in the Darkness (2009)

Artist: Savior From Anger
Title Of Album: Lost in the Darkness
Year Of Release: 2009
Label: Rock It Up Records
Genre: Power, Thrash Metal
Quality: FLAC (image+.cue) + log
Bitrate: Lossless
Total Time: 49:32
Total Size: 411 Mb
Italian Metal is on the fast lane, as we get to hear some fine debuts in 2009. "Lost in the Darkness" is another proof. The band is basically Marco Ruggerio, who did all guitar work and wrote the songs + singer Alessandro Granato. Drums and Bass were recorded by two different rhythm crews, at two different sessions. Both recordings differ in sound, but not in musical or songwriting-quality.
Tracklist:
01. Claustrophobia
02. Victim of Rage
03. No Way Out
04. Killing Greed
05. Double Shot
06. Mindstruck
07. Shudder of Death
08. Through This Life
09. Shock Wave
10. Puncture of Submission (bonustrack)
Exact Audio Copy V0.99 prebeta 4 from 23. January 2008
EAC extraction logfile from 15. May 2011, 12:07
Savior From Anger / Lost In The Darkness
Used drive : ATAPI iHAP122 9 Adapter: 3 ID: 0
Read mode : Secure
Utilize accurate stream : Yes
Defeat audio cache : Yes
Make use of C2 pointers : No
Read offset correction : 6
Overread into Lead-In and Lead-Out : No
Fill up missing offset samples with silence : Yes
Delete leading and trailing silent blocks : No
Null samples used in CRC calculations : Yes
Used interface : Installed external ASPI interface
Used output format : User Defined Encoder
Selected bitrate : 40 kBit/s
Quality : High
Add ID3 tag : No
Command line compressor : C:Program FilesExact Audio Copyflac.exe
Additional command line options : -6 -V %s
TOC of the extracted CD
Track | Start | Length | Start sector | End sector
---------------------------------------------------------
1 | 0:00.00 | 5:37.61 | 0 | 25335
2 | 5:37.61 | 4:42.08 | 25336 | 46493
3 | 10:19.69 | 5:18.52 | 46494 | 70395
4 | 15:38.46 | 6:08.43 | 70396 | 98038
5 | 21:47.14 | 5:08.64 | 98039 | 121202
6 | 26:56.03 | 5:50.00 | 121203 | 147452
7 | 32:46.03 | 4:10.42 | 147453 | 166244
8 | 36:56.45 | 5:31.10 | 166245 | 191079
9 | 42:27.55 | 3:57.21 | 191080 | 208875
10 | 46:25.01 | 3:12.16 | 208876 | 223291
Range status and errors
Selected range
Filename D:DownloadSavior From Anger - Lost In The Darkness.wav
Peak level 100.0 %
Range quality 100.0 %
Copy CRC E90E5997
Copy OK
No errors occurred
AccurateRip summary
Track 1 accurately ripped (confidence 1) [A21B8E41]
Track 2 accurately ripped (confidence 1) [8970CAB0]
Track 3 accurately ripped (confidence 1) [FF2F2678]
Track 4 accurately ripped (confidence 1) [EED2408E]
Track 5 accurately ripped (confidence 1) [A4508656]
Track 6 accurately ripped (confidence 1) [4344284A]
Track 7 accurately ripped (confidence 1) [32FFF6CB]
Track 8 accurately ripped (confidence 1) [F34DADBD]
Track 9 accurately ripped (confidence 1) [F6AC6C83]
Track 10 accurately ripped (confidence 1) [588BFDC9]
All tracks accurately ripped
End of status report
FileSonic
Wupload



Alternative download links

DOWNLOAD

Related MP3 FLAC to Savior From Anger - Lost in the Darkness (2009)
Feedback
All rights reserved.
WEBBG.com © 2000-2018