Smoking Time Jazz Club - Livin in a Great Big Way (2011)
MP3 FLAC WMA APE HD

Smoking Time Jazz Club - Livin in a Great Big Way (2011)

Artist: Smoking Time Jazz Club
Title Of Album: Livin' in a Great Big Way
Year Of Release: 2011
Label: Independent releas
Genre: New Orleans Jazz
Quality: FLAC (tracks+.cue) + log
Bitrate: Lossless
Total Time: 73:20
Total Size: 364 Mb
Independent release [burned CD and 8.5x11 paper case] but purchased from the musicians.
Tracklist:
01.Sentimental Gentleman From Georgia (04:44)
02.Lover Come Back To Me (03:49)
03.St. Louis Gal (04:19)
04.East St. Louis Tootle-Oo (03:28)
05.Sweet Sue (04:46)
06.Stardust (04:38)
07.Livin' In A Great Big Way! (04:08)
08.The Mooch (04:37)
09.Sugar (04:23)
10.Sweethearts On Parade (05:28)
11.Delta Bound (04:28)
12.West End Blues (04:36)
13.Muskrat Ramble (05:01)
14.Gotta Right To Sing The Blues (05:05)
15.Midnite Poppa (05:10)
16.Cakewalkin' Babies From Home (04:33)
Exact Audio Copy V0.99 prebeta 5 from 4. May 2009
EAC extraction logfile from 29. July 2011, 1:30
Smoking Time Jazz Club / Livin' In A Great Big Way
Used drive : ASUS DVD-E818A7T Adapter: 5 ID: 0
Read mode : Secure
Utilize accurate stream : Yes
Defeat audio cache : Yes
Make use of C2 pointers : No
Read offset correction : 6
Overread into Lead-In and Lead-Out : No
Fill up missing offset samples with silence : Yes
Delete leading and trailing silent blocks : No
Null samples used in CRC calculations : Yes
Used interface : Installed external ASPI interface
Gap handling : Appended to previous track
Used output format : User Defined Encoder
Selected bitrate : 128 kBit/s
Quality : High
Add ID3 tag : No
Command line compressor : C:Program FilesExact Audio CopyFlacflac.exe
Additional command line options : -T "artist=%a" -T "title=%t" -T "album=%g" -T "date=%y" -T "tracknumber=%n" -T "genre=%m" -8 %s
TOC of the extracted CD
Track | Start | Length | Start sector | End sector
---------------------------------------------------------
1 | 0:00.00 | 4:44.11 | 0 | 21310
2 | 4:44.11 | 3:49.12 | 21311 | 38497
3 | 8:33.23 | 4:19.47 | 38498 | 57969
4 | 12:52.70 | 3:28.27 | 57970 | 73596
5 | 16:21.22 | 4:46.28 | 73597 | 95074
6 | 21:07.50 | 4:38.15 | 95075 | 115939
7 | 25:45.65 | 4:08.36 | 115940 | 134575
8 | 29:54.26 | 4:37.34 | 134576 | 155384
9 | 34:31.60 | 4:23.26 | 155385 | 175135
10 | 38:55.11 | 5:28.55 | 175136 | 199790
11 | 44:23.66 | 4:28.41 | 199791 | 219931
12 | 48:52.32 | 4:36.54 | 219932 | 240685
13 | 53:29.11 | 5:01.35 | 240686 | 263295
14 | 58:30.46 | 5:05.52 | 263296 | 286222
15 | 63:36.23 | 5:10.29 | 286223 | 309501
16 | 68:46.52 | 4:33.17 | 309502 | 329993
Track 1
Filename N:tmp1 - Sentimental Gentleman From Georgia.wav
Pre-gap length 0:00:02.00
Peak level 99.6 %
Track quality 100.0 %
Test CRC 6C4D52B6
Copy CRC 6C4D52B6
Track not present in AccurateRip database
Copy OK
Track 2
Filename N:tmp2 - Lover Come Back To Me.wav
Peak level 100.0 %
Track quality 100.0 %
Test CRC B9C63525
Copy CRC B9C63525
Track not present in AccurateRip database
Copy OK
Track 3
Filename N:tmp3 - St. Louis Gal.wav
Pre-gap length 0:03:49.12
Peak level 100.0 %
Track quality 100.0 %
Test CRC 6454A25A
Copy CRC 6454A25A
Track not present in AccurateRip database
Copy OK
Track 4
Filename N:tmp4 - E. St. Louis Toodle-oo.wav
Pre-gap length 0:08:08.59
Peak level 100.0 %
Track quality 100.0 %
Test CRC 85715457
Copy CRC 85715457
Track not present in AccurateRip database
Copy OK
Track 5
Filename N:tmp5 - Sweet Sue.wav
Pre-gap length 0:11:37.11
Peak level 100.0 %
Track quality 100.0 %
Test CRC 83F00A9A
Copy CRC 83F00A9A
Track not present in AccurateRip database
Copy OK
Track 6
Filename N:tmp6 - Stardust.wav
Pre-gap length 0:16:23.39
Peak level 100.0 %
Track quality 100.0 %
Test CRC B10239DF
Copy CRC B10239DF
Track not present in AccurateRip database
Copy OK
Track 7
Filename N:tmp7 - Livin' In A Great Big Way.wav
Pre-gap length 0:21:01.54
Peak level 100.0 %
Track quality 100.0 %
Test CRC BDDA6247
Copy CRC BDDA6247
Track not present in AccurateRip database
Copy OK
Track 8
Filename N:tmp8 - The Mooch.wav
Pre-gap length 0:25:10.15
Peak level 97.2 %
Track quality 100.0 %
Test CRC B07D5BB7
Copy CRC B07D5BB7
Track not present in AccurateRip database
Copy OK
Track 9
Filename N:tmp9 - Sugar.wav
Pre-gap length 0:29:47.49
Peak level 98.4 %
Track quality 99.9 %
Test CRC 4A85CFAD
Copy CRC 4A85CFAD
Track not present in AccurateRip database
Copy OK
Track 10
Filename N:tmp10 - Sweethearts On Parade.wav
Pre-gap length 0:34:11.00
Peak level 100.0 %
Track quality 99.9 %
Test CRC 23C53BAB
Copy CRC 23C53BAB
Track not present in AccurateRip database
Copy OK
Track 11
Filename N:tmp11 - Delta Bound.wav
Pre-gap length 0:39:39.55
Peak level 97.6 %
Track quality 100.0 %
Test CRC 2D9E8004
Copy CRC 2D9E8004
Track not present in AccurateRip database
Copy OK
Track 12
Filename N:tmp12 - West End Blues.wav
Pre-gap length 0:44:08.21
Peak level 100.0 %
Track quality 100.0 %
Test CRC 96129EA0
Copy CRC 96129EA0
Track not present in AccurateRip database
Copy OK
Track 13
Filename N:tmp13 - Muskrat Ramble.wav
Pre-gap length 0:48:45.00
Peak level 100.0 %
Track quality 100.0 %
Test CRC 354ACDBA
Copy CRC 354ACDBA
Track not present in AccurateRip database
Copy OK
Track 14
Filename N:tmp14 - Gotta Right to Sing the Blues.wav
Pre-gap length 0:53:46.35
Peak level 98.2 %
Track quality 100.0 %
Test CRC F2077ECE
Copy CRC F2077ECE
Track not present in AccurateRip database
Copy OK
Track 15
Filename N:tmp15 - Midnite Poppa.wav
Pre-gap length 0:58:52.12
Peak level 100.0 %
Track quality 100.0 %
Test CRC 08785656
Copy CRC 08785656
Track not present in AccurateRip database
Copy OK
Track 16
Filename N:tmp16 - Cakewalkin' Babies at Home.wav
Pre-gap length 1:04:02.41
Peak level 97.7 %
Track quality 100.0 %
Test CRC AE311450
Copy CRC AE311450
Track not present in AccurateRip database
Copy OK
None of the tracks are present in the AccurateRip database
No errors occurred
End of status report
FileSonic
Wupload



Alternative download links

DOWNLOAD

Related MP3 FLAC to Smoking Time Jazz Club - Livin in a Great Big Way (2011)
Feedback
All rights reserved.
WEBBG.com © 2000-2018