Oluyemi Thomas, Gino Robair - Unity in Multiplicity (1996)
MP3 FLAC WMA APE HD

Oluyemi Thomas, Gino Robair - Unity in Multiplicity (1996)

  • Genre: Music, Jazz, FLAC / APE
  • Formats: MP3 FLAC WMA HD APE
  • Album Size: 1629 mb.
  • Archive: ZIP RAR
Artist: Oluyemi Thomas, Gino Robair
Title Of Album: Unity in Multiplicity
Year Of Release: 1996
Label: Rastascan
Genre: Free Improvisation, Free Jazz
Quality: FLAC (image+.cue) + log
Bitrate: Lossless
Total Time: 56:54
Total Size: 236 Mb
Gino Robair is an American composer, improvisor, drummer, and percussionist. In his own work (as a soloist and in improvisation ensembles), he plays prepared/modified percussion, analog synthesizer, ebow and prepared piano, theremin, and bowed objects (polystyrene, customized/broken cymbals, faux daxophone, metal).
Tracklist:
1 Crusade Heartscape 12:16
2 Tone Soul [For Ljeoma Thomas/Poet] 12:03
3 Upbuild 19:24
4 Primal Wisdom Focus 8:00
5 Advance 1:03
6 Checking Within A/B 4:05
Exact Audio Copy V1.0 beta 2 from 29. April 2011
EAC extraction logfile from 23. August 2011, 12:37
Oluyemi Thomas, Gino Robair / Unity in Multiplicity
Used drive : Optiarc DVD RW AD-7170A Adapter: 0 ID: 0
Read mode : Secure
Utilize accurate stream : Yes
Defeat audio cache : Yes
Make use of C2 pointers : No
Read offset correction : 48
Overread into Lead-In and Lead-Out : No
Fill up missing offset samples with silence : Yes
Delete leading and trailing silent blocks : No
Null samples used in CRC calculations : Yes
Used interface : Native Win32 interface for Win NT & 2000
Used output format : User Defined Encoder
Selected bitrate : 320 kBit/s
Quality : High
Add ID3 tag : No
Command line compressor : C:Program FilesExact Audio CopyFlacflac.exe
Additional command line options : -V -8 -T "Date=%year%" -T "Genre=%genre%" %source%
TOC of the extracted CD
Track | Start | Length | Start sector | End sector
---------------------------------------------------------
1 | 0:00.00 | 12:16.27 | 0 | 55226
2 | 12:16.27 | 12:03.33 | 55227 | 109484
3 | 24:19.60 | 19:24.70 | 109485 | 196854
4 | 43:44.55 | 8:00.57 | 196855 | 232911
5 | 51:45.37 | 1:03.38 | 232912 | 237674
6 | 52:49.00 | 4:05.34 | 237675 | 256083
Range status and errors
Selected range
Filename C:EACDownloadsOluyemi Thomas, Gino Robair - Unity in Multiplicity.wav
Peak level 98.9 %
Extraction speed 5.4 X
Range quality 100.0 %
Test CRC A7B56D16
Copy CRC A7B56D16
Copy OK
No errors occurred
AccurateRip summary
Track 1 cannot be verified as accurate (confidence 1) [AB7F3C80], AccurateRip returned [F86D5A5A] (AR v2)
Track 2 cannot be verified as accurate (confidence 1) [AB7C092A], AccurateRip returned [50B9089C] (AR v2)
Track 3 cannot be verified as accurate (confidence 1) [7682CD59], AccurateRip returned [B6DF8BD5] (AR v2)
Track 4 cannot be verified as accurate (confidence 1) [C43A5AAE], AccurateRip returned [FA6AEA5E] (AR v2)
Track 5 cannot be verified as accurate (confidence 1) [FC59506F], AccurateRip returned [B3E5CF15] (AR v2)
Track 6 cannot be verified as accurate (confidence 1) [0FC5BB36], AccurateRip returned [11516D6D] (AR v2)
No tracks could be verified as accurate
You may have a different pressing from the one(s) in the database
End of status report
FileSonic
Wupload



Alternative download links

DOWNLOAD

Related MP3 FLAC to Oluyemi Thomas, Gino Robair - Unity in Multiplicity (1996)
Feedback
All rights reserved.
WEBBG.com © 2000-2018