Yellowjackets - The Spin (1989)
MP3 FLAC WMA APE HD

Yellowjackets - The Spin (1989)

Artist: Yellowjackets
Title Of Album: The Spin
Year Of Release: 1989
Label: MCA Records
Genre: Fusion, Post-Bop, Smooth Jazz
Quality: FLAC (tracks+.cue) + log
Bitrate: Lossless
Total Time: 52:34
Total Size: 324 Mb
Tracklist:
01. Geraldine - 6:44
02. The Spin - 4:49
03. Storytellers - 6:46
04. Prayer for El Salvador - 6:02
05. Whistle While You Walk - 5:15
06. Enigma - 4:49
07. Dark Horses - 5:01
08. Blues for Nikki - 4:20
09. Medley: A Flower Is A Lovesome Thing, Hallucinations - 8:48
Exact Audio Copy V1.0 beta 1 from 15. November 2010
EAC extraction logfile from 21. January 2011, 1:04
Yellowjackets / The Spin
Used drive : HL-DT-STDVD-RAM GSA-H55N Adapter: 0 ID: 2
Read mode : Secure
Utilize accurate stream : Yes
Defeat audio cache : Yes
Make use of C2 pointers : No
Read offset correction : 102
Overread into Lead-In and Lead-Out : Yes
Fill up missing offset samples with silence : Yes
Delete leading and trailing silent blocks : No
Null samples used in CRC calculations : Yes
Used interface : Installed external ASPI interface
Gap handling : Appended to previous track
Used output format : User Defined Encoder
Selected bitrate : 128 kBit/s
Quality : High
Add ID3 tag : No
Command line compressor : G:Program FilesExact Audio CopyEncoderflac.exe
Additional command line options : -V -8 -T "Genre=%m" -T "Artist=%a" -T "Title=%t" -T "Album=%g" -T "Date=%y" -T "Tracknumber=%n" -T "Comment=EAC1.0b1 -8" %s
TOC of the extracted CD
Track | Start | Length | Start sector | End sector
---------------------------------------------------------
1 | 0:00.00 | 6:44.18 | 0 | 30317
2 | 6:44.18 | 4:48.42 | 30318 | 51959
3 | 11:32.60 | 6:46.30 | 51960 | 82439
4 | 18:19.15 | 6:02.10 | 82440 | 109599
5 | 24:21.25 | 5:15.28 | 109600 | 133252
6 | 29:36.53 | 4:48.47 | 133253 | 154899
7 | 34:25.25 | 5:01.35 | 154900 | 177509
8 | 39:26.60 | 4:19.45 | 177510 | 196979
9 | 43:46.30 | 8:47.40 | 196980 | 236544
Track 1
Filename F:WAV1. Geraldine.wav
Pre-gap length 0:00:02.00
Peak level 99.2 %
Extraction speed 5.3 X
Track quality 100.0 %
Test CRC 3BCE35A9
Copy CRC 3BCE35A9
Accurately ripped (confidence 4) [FC889D55]
Copy OK
Track 2
Filename F:WAV2. The Spin.wav
Pre-gap length 0:00:01.35
Peak level 98.5 %
Extraction speed 5.1 X
Track quality 99.9 %
Test CRC 807D0B62
Copy CRC 807D0B62
Accurately ripped (confidence 4) [886F7E94]
Copy OK
Track 3
Filename F:WAV3. Storytellers.wav
Pre-gap length 0:00:02.10
Peak level 92.1 %
Extraction speed 6.5 X
Track quality 100.0 %
Test CRC D3A3E65D
Copy CRC D3A3E65D
Accurately ripped (confidence 4) [0FE1FA9E]
Copy OK
Track 4
Filename F:WAV4. Prayer for El Salvador.wav
Pre-gap length 0:00:02.33
Peak level 78.9 %
Extraction speed 6.9 X
Track quality 100.0 %
Test CRC 5E7BD01B
Copy CRC 5E7BD01B
Accurately ripped (confidence 4) [973FAFD8]
Copy OK
Track 5
Filename F:WAV5. Whistle While You Walk.wav
Pre-gap length 0:00:02.13
Peak level 100.0 %
Extraction speed 7.2 X
Track quality 100.0 %
Test CRC 6FE7C481
Copy CRC 6FE7C481
Accurately ripped (confidence 4) [A09AA2A6]
Copy OK
Track 6
Filename F:WAV6. Enigma.wav
Pre-gap length 0:00:01.05
Peak level 61.5 %
Extraction speed 7.4 X
Track quality 100.0 %
Test CRC B381CCE5
Copy CRC B381CCE5
Accurately ripped (confidence 4) [2A9D6C0D]
Copy OK
Track 7
Filename F:WAV7. Dark Horses.wav
Pre-gap length 0:00:00.54
Peak level 100.0 %
Extraction speed 7.6 X
Track quality 100.0 %
Test CRC 5E22E891
Copy CRC 5E22E891
Accurately ripped (confidence 4) [3CBBECCE]
Copy OK
Track 8
Filename F:WAV8. Blues for Nikki.wav
Pre-gap length 0:00:01.20
Peak level 100.0 %
Extraction speed 7.7 X
Track quality 100.0 %
Test CRC 1BDB57E5
Copy CRC 1BDB57E5
Accurately ripped (confidence 4) [F827994B]
Copy OK
Track 9
Filename F:WAV9. Medley. A Flower Is A Lovesome Thing, Hallucinations.wav
Pre-gap length 0:00:00.03
Peak level 100.0 %
Extraction speed 3.7 X
Track quality 100.0 %
Test CRC C77A356B
Copy CRC C77A356B
Accurately ripped (confidence 4) [E5C7A2E9]
Copy OK
All tracks accurately ripped
No errors occurred
End of status report
FileSonic.com
Turbobit.net



Alternative download links

DOWNLOAD

Related MP3 FLAC to Yellowjackets - The Spin (1989)
Feedback
All rights reserved.
WEBBG.com © 2000-2018