Al Di Meola - The Infinite Desire (1998)
MP3 FLAC WMA APE HD

Al Di Meola - The Infinite Desire (1998)

  • Genre: Music, Jazz, FLAC / APE
  • Formats: MP3 FLAC WMA HD APE
  • Album Size: 1893 mb.
  • Archive: ZIP RAR
Artist: Al Di Meola
Title Of Album: The Infinite Desire
Year Of Release: 1998
Label: Telarc
Genre: Jazz, World Fusion, Progressive Jazz-Rock, Contemporary Jazz
Quality: FLAC (tracks+.cue) + log
Bitrate: Lossless
Total Time: 63:24
Total Size: 435 Mb
With the help of new generations of guitar synthesizers and samplers, The Infinite Desire finds a mature, lyrical, more expressive Al di Meola casting his lot with Telarc, which until the late '90s had concentrated its attentions upon aging acoustic jazzers. Indeed, he makes marvelously musical use of the new devices, creating sensuous, exotic layers of sound that lie easily upon the ear, without much of the usual harshness of digital instruments generated by those who haven't bothered to master them. "Shaking the Spirits" in particular is a fascinating piece, loaded with dazzling Middle Eastern and African colorations, and the sampled trumpet sound he gets on "Valentina" is astoundingly lifelike. Also, di Meola's playing became more unabashedly fluid in the '90s; on the closest thing to a straight-ahead track, "Invention of the Monsters," di Meola's electric guitar curls intricately and swingingly around the bass of Tom Kennedy, Ernie Adams' drums, and some synthesized brass. Di Meola's co-conspirators change from track to track, although two who figure a lot in the sound and package are keyboardist Rachel Z (a former di Meola sidewoman) and bassist John Patitucci. Also check out Herbie Hancock on acoustic grand and Peter Erskine's drums on "Istanbul," and di Meola's fairly good-natured duel with rock guitarist Steve Vai on "Race with Devil on Turkish Highway."
Tracklist:
01. Beyond the Mirage [7:18]
02. Shaking the Spirits [6:30]
03. Vizzini [4:54]
04. In My Mother's Eyes (Memory of Teresa) [4:41]
05. The Infinite Desire (Daniele, Di Meola) [5:26]
06. Invention of the Monsters [3:06]
07. Istanbul [8:00]
08. Azzura [2:55]
09. Big Sky Azzura [6:07]
10. Race With Devil on Turkish Highway [4:03]
11. Valentina [4:44]
12. The Infinite Desire (Pino Daniele, vocal) [5:27]
Exact Audio Copy V0.99 prebeta 5 from 4. May 2009
EAC extraction logfile from 13. June 2011, 12:55
Al Di Meola / The Infinite Desire
Used drive : Optiarc DVD RW AD-7700H Adapter: 0 ID: 1
Read mode : Secure
Utilize accurate stream : Yes
Defeat audio cache : Yes
Make use of C2 pointers : No
Read offset correction : 48
Overread into Lead-In and Lead-Out : No
Fill up missing offset samples with silence : Yes
Delete leading and trailing silent blocks : No
Null samples used in CRC calculations : Yes
Used interface : Native Win32 interface for Win NT & 2000
Gap handling : Appended to previous track
Used output format : User Defined Encoder
Selected bitrate : 768 kBit/s
Quality : High
Add ID3 tag : No
Command line compressor : C:Program Files (x86)Exact Audio CopyFLACFLAC.EXE
Additional command line options : -8 -V -T "ARTIST=%a" -T "TITLE=%t" -T "ALBUM=%g" -T "DATE=%y" -T "TRACKNUMBER=%n" -T "GENRE=%m" -T "COMMENT=EAC FLAC -8" %s
TOC of the extracted CD
Track | Start | Length | Start sector | End sector
---------------------------------------------------------
1 | 0:00.00 | 7:19.62 | 0 | 32986
2 | 7:19.62 | 6:30.38 | 32987 | 62274
3 | 13:50.25 | 4:56.02 | 62275 | 84476
4 | 18:46.27 | 4:41.43 | 84477 | 105594
5 | 23:27.70 | 5:28.67 | 105595 | 130261
6 | 28:56.62 | 3:05.60 | 130262 | 144196
7 | 32:02.47 | 8:01.03 | 144197 | 180274
8 | 40:03.50 | 2:55.22 | 180275 | 193421
9 | 42:58.72 | 6:06.70 | 193422 | 220941
10 | 49:05.67 | 4:05.13 | 220942 | 239329
11 | 53:11.05 | 4:46.47 | 239330 | 260826
12 | 57:57.52 | 5:26.55 | 260827 | 285331
Track 1
Filename C:UserssonyMusic1 - Beyond The Mirage.wav
Pre-gap length 0:00:02.00
Peak level 99.2 %
Track quality 100.0 %
Test CRC D9503FC1
Copy CRC D9503FC1
Accurately ripped (confidence 25) [260777DB]
Copy OK
Track 2
Filename C:UserssonyMusic2 - Shaking The Spirits.wav
Pre-gap length 0:00:01.52
Peak level 99.2 %
Track quality 99.9 %
Test CRC FBF6CB79
Copy CRC FBF6CB79
Accurately ripped (confidence 26) [99351CCA]
Copy OK
Track 3
Filename C:UserssonyMusic3 - Vizzini.wav
Pre-gap length 0:00:00.55
Peak level 99.9 %
Track quality 100.0 %
Test CRC 2B0228AC
Copy CRC 2B0228AC
Accurately ripped (confidence 26) [12559925]
Copy OK
Track 4
Filename C:UserssonyMusic4 - In My Mother's Eyes.wav
Pre-gap length 0:00:01.37
Peak level 100.0 %
Track quality 99.9 %
Test CRC BF662589
Copy CRC BF662589
Accurately ripped (confidence 26) [E0B38FCF]
Copy OK
Track 5
Filename C:UserssonyMusic5 - The Infinite Desire.wav
Pre-gap length 0:00:00.68
Peak level 99.2 %
Track quality 100.0 %
Test CRC 18C0ECD2
Copy CRC 18C0ECD2
Accurately ripped (confidence 26) [19F01D98]
Copy OK
Track 6
Filename C:UserssonyMusic6 - Invention Of The Monsters.wav
Pre-gap length 0:00:02.37
Peak level 99.2 %
Track quality 100.0 %
Test CRC 76E91D76
Copy CRC 76E91D76
Accurately ripped (confidence 25) [2DBC7FC5]
Copy OK
Track 7
Filename C:UserssonyMusic7 - Istanbul.wav
Peak level 99.2 %
Track quality 100.0 %
Test CRC 296BB3F7
Copy CRC 296BB3F7
Accurately ripped (confidence 26) [F786DBC7]
Copy OK
Track 8
Filename C:UserssonyMusic8 - Azzura.wav
Pre-gap length 0:00:01.08
Peak level 99.9 %
Track quality 99.9 %
Test CRC AF5F0ACA
Copy CRC AF5F0ACA
Accurately ripped (confidence 26) [3256998F]
Copy OK
Track 9
Filename C:UserssonyMusic9 - Big Sky Azzura.wav
Peak level 99.9 %
Track quality 99.9 %
Test CRC 3CB93F8F
Copy CRC 3CB93F8F
Accurately ripped (confidence 26) [51C4123F]
Copy OK
Track 10
Filename C:UserssonyMusic10 - Race With Devil On Turkish Highway.wav
Peak level 99.9 %
Track quality 100.0 %
Test CRC DDB417B0
Copy CRC DDB417B0
Accurately ripped (confidence 26) [86589218]
Copy OK
Track 11
Filename C:UserssonyMusic11 - Valentina.wav
Pre-gap length 0:00:02.25
Peak level 99.9 %
Track quality 100.0 %
Test CRC 6EAD5A27
Copy CRC 6EAD5A27
Accurately ripped (confidence 26) [D19C3208]
Copy OK
Track 12
Filename C:UserssonyMusic12 - The Infinite Desire.wav
Pre-gap length 0:00:02.57
Peak level 97.7 %
Track quality 100.0 %
Test CRC F8E3DE7A
Copy CRC F8E3DE7A
Accurately ripped (confidence 23) [D452689D]
Copy OK
All tracks accurately ripped
No errors occurred
End of status report
FileSonic
Wupload



Alternative download links

DOWNLOAD

Related MP3 FLAC to Al Di Meola - The Infinite Desire (1998)
Feedback
All rights reserved.
WEBBG.com © 2000-2018