Roxette - Crash! Boom! Bang! Japan, TOCP-8201
MP3 FLAC WMA APE HD

Roxette - Crash! Boom! Bang! Japan, TOCP-8201

  • Genre: Music, Pop, Rock
  • Formats: MP3 FLAC WMA HD APE
  • Album Size: 1244 mb.
  • Archive: ZIP RAR
Artist: Roxette
Title Of Album: Roxette - Crash! Boom! Bang!
Year Of Release: 7 April 1996
Label: Toshiba EMI
Genre: Pop, Rock
Quality: FLAC
Bitrate: lossless image +cue +log +Booklet/SCANS
Total Size: 608,21 Mb
I did not like the first song on this CD, it simply did not grab me. Okay, that's out of the way.
I agree with the reviewer below, the Higher Order of Magnitude comments. The rest of the songs on this CD are all compositions of extraordinarily high quality. While C!B!B! is lightly attractive as pleasant back-ground ear candy in ordinary social circumstances, closer examination of the lyrics and deeper listening to the music reveal fantastic contemporary poetry and magnificent accompanying music.
This man Per Gessle is a living muse. The simplicity-yet-depth of his verbal expression -- for example, "been holding on too long - to long," which is NOT mere repetition -- is unbelievably thoughtful and subtle. That particular song, in fact, "What's She Like," conveys the impression of intense pain and regret. My first thought was that a woman with remarkable powers of expression had composed it, casting into words her feelings after being rejected by a lover... and I was startled to see that Gessle wrote that song (and then I saw that he wrote the words/music for all the others too).
Sit down with this CD, and read the words while playing the songs, and you will be captivated. Ask yourself what process brought these compositionss into being -- consider what sort of thinking creates art like this. You will realize you cannot do it yourself, you will understand that this individual has a tremendous gift.
I am not generally familiar with Roxette, much less am I friends with the band members (which would prompt artificial promotional flattery). NO, my appraisal of this work is completely honest -- I think "Crash! Boom! Bang!" constitutes an absolutely superlative set of songs, and I vigorously recommend it to anyone who appreciates true poetic/musical art. Per Gessle's composition talent is of the highest quality -- and Marie's fantastic vocals definitely bring it all to life.
This music is the best. Enjoy.
Tracklist:

01. Harleys & Indians [0:03:45.00]
02. Crash! Boom! Bang! [0:05:01.66]
03. Fireworks [0:03:57.62]
04. Run To You [0:03:39.26]
05. Sleeping In My Car [0:03:46.13]
06. Vulnerable [0:05:00.97]
07. The First Girl On The Moon [0:03:01.89]
08. Place Your Love [0:03:07.93]
09. I Love The Sound Of Crashing Guitars [0:04:47.90]
10. What's She Like [0:04:14.20]
11. Do You Wanna Go The Whole Way? [0:04:09.40]
12. It's Almost Unreal [0:03:58.40]
13. Lies [0:03:34.26]
14. I'm Sorry [0:03:13.66]
15. Love Is All [0:06:44.62]
16. Go To Sleep [0:03:59.00]
Exact Audio Copy V0.99 prebeta 5 from 4. May 2009
EAC extraction logfile from 22. May 2010, 23:13
ROXETTE / Crash! Boom! Bang!
Used drive : PLEXTOR DVDR PX-716A Adapter: 0 ID: 0
Read mode : Secure
Utilize accurate stream : Yes
Defeat audio cache : Yes
Make use of C2 pointers : No
Read offset correction : 30
Overread into Lead-In and Lead-Out : Yes
Fill up missing offset samples with silence : Yes
Delete leading and trailing silent blocks : No
Null samples used in CRC calculations : Yes
Used interface : Native Win32 interface for Win NT & 2000
Used output format : User Defined Encoder
Selected bitrate : 1024 kBit/s
Quality : High
Add ID3 tag : No
Command line compressor : C:Program Files (x86)FLACflac.exe
Additional command line options : -8 -V -T "ARTIST=%a" -T "TITLE=%t" -T "ALBUM=%g" -T "DATE=%y" -T "TRACKNUMBER=%n" -T "GENRE=%m" -T "COMMENT=EAC FLAC -8" %s
TOC of the extracted CD
Track | Start | Length | Start sector | End sector
---------------------------------------------------------
1 | 0:00.00 | 3:45.00 | 0 | 16874
2 | 3:45.00 | 5:01.50 | 16875 | 39499
3 | 8:46.50 | 3:57.47 | 39500 | 57321
4 | 12:44.22 | 3:39.20 | 57322 | 73766
5 | 16:23.42 | 3:46.10 | 73767 | 90726
6 | 20:09.52 | 5:00.73 | 90727 | 113299
7 | 25:10.50 | 3:01.67 | 113300 | 126941
8 | 28:12.42 | 3:07.70 | 126942 | 141036
9 | 31:20.37 | 4:47.68 | 141037 | 162629
10 | 36:08.30 | 4:14.15 | 162630 | 181694
11 | 40:22.45 | 4:09.30 | 181695 | 200399
12 | 44:32.00 | 3:58.30 | 200400 | 218279
13 | 48:30.30 | 3:34.20 | 218280 | 234349
14 | 52:04.50 | 3:13.50 | 234350 | 248874
15 | 55:18.25 | 6:44.47 | 248875 | 279221
16 | 62:02.72 | 3:59.00 | 279222 | 297146
Range status and errors
Selected range
Filename E:mtorrent_flacRoxette - Crash! Boom! Bang! (Japan)ROXETTE - Crash! Boom! Bang!.wav
Peak level 100.0 %
Range quality 100.0 %
Test CRC 9F8A2FC1
Copy CRC 9F8A2FC1
Copy OK
No errors occurred
AccurateRip summary
Track 1 accurately ripped (confidence 3) [40B30558]
Track 2 accurately ripped (confidence 3) [7F041037]
Track 3 accurately ripped (confidence 3) [0AF7C8F3]
Track 4 accurately ripped (confidence 3) [94465664]
Track 5 accurately ripped (confidence 3) [00A5435F]
Track 6 accurately ripped (confidence 3) [5F7DF502]
Track 7 accurately ripped (confidence 3) [77504F76]
Track 8 accurately ripped (confidence 3) [03AA7DD8]
Track 9 accurately ripped (confidence 3) [EDEBBE5A]
Track 10 accurately ripped (confidence 3) [4801B7EE]
Track 11 accurately ripped (confidence 3) [E0FB42D7]
Track 12 accurately ripped (confidence 3) [6ACDF351]
Track 13 accurately ripped (confidence 3) [162F8959]
Track 14 accurately ripped (confidence 3) [AA38ADD5]
Track 15 accurately ripped (confidence 3) [76195BEE]
Track 16 accurately ripped (confidence 3) [F200465D]
All tracks accurately ripped
End of status report
Download Roxette - Crash! Boom! Bang! [Japan, TOCP-8201] :
Turbobit.net:
Hotfile.com
Sharingmatrix.com:
Rapidshare.com:
Thanks to the original Publicist "Konstantin_slash"



Alternative download links



Related MP3 FLAC to Roxette - Crash! Boom! Bang! Japan, TOCP-8201
Feedback
All rights reserved.
WEBBG.com © 2000-2018