5Live - In the Kitchen (a project from Henrik Freischlader) 2008
MP3 FLAC WMA APE HD

5Live - In the Kitchen (a project from Henrik Freischlader) 2008

Artist: 5Live
Title Of Album: In the Kitchen (a project from Henrik Freischlader)
Year Of Release: 2008
Label: 5Live
Genre: Euroblues
Quality: WaVPack (image+.cue (iso.wv)) / mp3
Bitrate: lossless / 320kbps
Total Time: 65:01 min
Total Size: 431 mb / 149 mb
TRACKLIST:
1. Little By Little 06:11 (Junior Wells)
2. How Long 06:02 (Mickey Neher)
3. Days Alone 05:14 (Henrik Freischlader)
4. Spooky 06:08 (Dusty Springfield)
5. New Love 06:26 (Mickey Neher)
6. Drown In My Own Tears 04:53 (Ray Charles)
7. Too Through With You 08:00 (Steve Gannon)
8. Get Closer 07:36 (Henrik Freischlader)
9. Lonely Town 07:26 (Bill Withers)
Henrik Freischlader (guitar, vocals)
Tommy Schneller (saxophone, vocals)
Moritz Fuhrhop (organ)
Olli Gee (bass)
Mickey Neher (drums)
Exact Audio Copy V0.99 prebeta 5 from 4. May 2009
EAC extraction logfile from 12. December 2009, 15:39
5Live / IN THE KITCHEN
Used drive : HL-DT-STDVD-ROM DH16NS10 Adapter: 3 ID: 0
Read mode : Secure
Utilize accurate stream : Yes
Defeat audio cache : Yes
Make use of C2 pointers : No
Read offset correction : 102
Overread into Lead-In and Lead-Out : No
Fill up missing offset samples with silence : Yes
Delete leading and trailing silent blocks : No
Null samples used in CRC calculations : Yes
Used interface : Native Win32 interface for Win NT & 2000
Used output format : Internal WAV Routines
Sample format : 44.100 Hz; 16 Bit; Stereo
TOC of the extracted CD
Track | Start | Length | Start sector | End sector
---------------------------------------------------------
1 | 0:00.00 | 6:12.10 | 0 | 27909
2 | 6:12.10 | 6:02.17 | 27910 | 55076
3 | 12:14.27 | 5:14.10 | 55077 | 78636
4 | 17:28.37 | 6:07.30 | 78637 | 106191
5 | 23:35.67 | 6:26.43 | 106192 | 135184
6 | 30:02.35 | 4:54.40 | 135185 | 157274
7 | 34:57.00 | 8:04.40 | 157275 | 193614
8 | 43:01.40 | 7:35.72 | 193615 | 227811
9 | 50:37.37 | 14:19.70 | 227812 | 292306
Range status and errors
Selected range
Filename X:Releases RAW5Live - IN THE KITCHEN5Live - IN THE KITCHEN.wav
Peak level 94.4 %
Range quality 99.9 %
Test CRC B4C34680
Copy CRC B4C34680
Copy OK
No errors occurred
AccurateRip summary
Track 1 not present in database
Track 2 not present in database
Track 3 not present in database
Track 4 not present in database
Track 5 not present in database
Track 6 not present in database
Track 7 not present in database
Track 8 not present in database
Track 9 not present in database
None of the tracks are present in the AccurateRip database
End of status report
FLAC
Hotfile.com
Rapidshare.com
MP3 320 kbps
Hotfile.com
Rapidshare.com
If links are broken, please send me PM



Alternative download links

part1 part2 part3 part4 part5 part1 part2 part3 part4 part5 part1 part2 part1 part2

Related MP3 FLAC to 5Live - In the Kitchen (a project from Henrik Freischlader) 2008
Feedback
All rights reserved.
WEBBG.com © 2000-2018