Esbjörn Svensson Trio (E.S.T.) - Tuesday Wonderland (2006)
MP3 FLAC WMA APE HD

Esbjörn Svensson Trio (E.S.T.) - Tuesday Wonderland (2006)

  • Genre: Music, Jazz, FLAC / APE
  • Formats: MP3 FLAC WMA HD APE
  • Album Size: 1902 mb.
  • Archive: ZIP RAR
Artist: Esbjörn Svensson Trio (E.S.T.)
Title Of Album: Good Morning Susie Soho
Year Of Release: 2006
Label: ACT
Genre: jazz, post-bop
Quality: FLAC
Bitrate: lossless
Total Time: 01:07:54
Total Size: 375 mb
Tracklist:
01. Fading Maid Preludium
02. Tuesday Wonderland
03. The Goldhearted Miner
04. Brewery Of Beggars
05. Beggarґs Blanket
06. Dolores In A Shoestand
07. Where We Used To Live
08. Eighthundred Streets By Feet
09. Goldwrap
10. Sipping On The Solid Ground
11. Fading Maid Postludium
EAC extraction logfile from 8. September 2006, 15:11 for CD
E.S.T / Tuesday Wonderland
Used drive : ASUS DRW-1608P2S Adapter: 0 ID: 3
Read mode : Secure with NO C2, accurate stream, disable cache
Read offset correction : 48
Overread into Lead-In and Lead-Out : Yes
Used output format : C:Program FilesExact Audio CopyPluginsflac.exe (User Defined Encoder)
320 kBit/s
Additional command line options : -V -8 -T "artist=%a" -T "title=%t" -T "album=%g" -T "date=%y" -T "tracknumber=%n" -T "genre=%m" -T "comment=EAC 095pb5 / Flac 1.1.2 -8" %s
Other options :
Fill up missing offset samples with silence : Yes
Delete leading and trailing silent blocks : No
Native Win32 interface for Win NT & 2000
Track 1
Filename C:sharedBTEsbjorn Svensson Trio - Tuesday Wonderland [FLAC]1 - Fading Maid Preludium.wav
Pre-gap length 0:00:02.00
Peak level 98.8 %
Track quality 100.0 %
Test CRC 860C5352
Copy CRC 860C5352
Copy OK
Track 2
Filename C:sharedBTEsbjorn Svensson Trio - Tuesday Wonderland [FLAC]2 - Tuesday Wonderland.wav
Peak level 98.8 %
Track quality 100.0 %
Test CRC B5086E86
Copy CRC B5086E86
Copy OK
Track 3
Filename C:sharedBTEsbjorn Svensson Trio - Tuesday Wonderland [FLAC]3 - The Goldhearted Miner.wav
Pre-gap length 0:00:01.44
Peak level 95.5 %
Track quality 100.0 %
Test CRC 0FF37B6F
Copy CRC 0FF37B6F
Copy OK
Track 4
Filename C:sharedBTEsbjorn Svensson Trio - Tuesday Wonderland [FLAC]4 - Brewery Of Beggars.wav
Peak level 98.8 %
Track quality 99.9 %
Test CRC 1A156F46
Copy CRC 1A156F46
Copy OK
Track 5
Filename C:sharedBTEsbjorn Svensson Trio - Tuesday Wonderland [FLAC]5 - Beggarґs Blanket.wav
Peak level 61.3 %
Track quality 100.0 %
Test CRC E8A24ACE
Copy CRC E8A24ACE
Copy OK
Track 6
Filename C:sharedBTEsbjorn Svensson Trio - Tuesday Wonderland [FLAC]6 - Dolores In A Shoestand.wav
Pre-gap length 0:00:02.54
Peak level 98.8 %
Track quality 100.0 %
Test CRC 058BC4F1
Copy CRC 058BC4F1
Copy OK
Track 7
Filename C:sharedBTEsbjorn Svensson Trio - Tuesday Wonderland [FLAC]7 - Where We Used To Live.wav
Pre-gap length 0:00:00.61
Peak level 98.8 %
Track quality 100.0 %
Test CRC 94F5CAF5
Copy CRC 94F5CAF5
Copy OK
Track 8
Filename C:sharedBTEsbjorn Svensson Trio - Tuesday Wonderland [FLAC]8 - Eighthundred Streets By Feet.wav
Pre-gap length 0:00:01.64
Peak level 98.8 %
Track quality 100.0 %
Test CRC 77B22119
Copy CRC 77B22119
Copy OK
Track 9
Filename C:sharedBTEsbjorn Svensson Trio - Tuesday Wonderland [FLAC]9 - Goldwrap.wav
Pre-gap length 0:00:01.18
Peak level 98.8 %
Track quality 100.0 %
Test CRC EAB4071F
Copy CRC EAB4071F
Copy OK
Track 10
Filename C:sharedBTEsbjorn Svensson Trio - Tuesday Wonderland [FLAC]10 - Sipping On The Solid Ground.wav
Pre-gap length 0:00:03.08
Peak level 98.8 %
Track quality 99.9 %
Test CRC 26267408
Copy CRC 26267408
Copy OK
Track 11
Filename C:sharedBTEsbjorn Svensson Trio - Tuesday Wonderland [FLAC]11 - Fading Maid Postludium.wav
Pre-gap length 0:00:04.46
Peak level 98.8 %
Track quality 100.0 %
Test CRC 55A36AEB
Copy CRC 55A36AEB
Copy OK
No errors occured
End of status report




Alternative download links



Related MP3 FLAC to Esbjörn Svensson Trio (E.S.T.) - Tuesday Wonderland (2006)
Feedback
All rights reserved.
WEBBG.com © 2000-2018