Kim Wilde - The Singles Collection 1981-1993 Japan, MVCM-415
MP3 FLAC WMA APE HD

Kim Wilde - The Singles Collection 1981-1993 Japan, MVCM-415

  • Genre: Music, Pop, FLAC / APE
  • Formats: MP3 FLAC WMA HD APE
  • Album Size: 1745 mb.
  • Archive: ZIP RAR
Artist: Kim Wilde
Title Of Album: Kim Wilde - The Singles Collection 1981-1993
Year Of Release: 21. Oktober 1993
Label: MCA
Genre: Pop
Quality: FLAC
Bitrate: lossless image +cue +log +Booklet/SCANS
Total Size: 601,21 Mb
This CD really comes to show how much the music industry has deteriorated in the past two decades. Why are talentless camera-hogs like Britney and Jessica constantly getting airplay in lieu of Kim Wilde, I ask? I could think endlessly, for hours, trying to find an answer to this puzzling question, but still probably couldn't. It's an enigma.
Anyways, I had never actually heard of Wilde until a few years ago - and I discovered her music in two different places. The first was through the video game Grand Theft Auto: Vice City, in which "Kids in America" became a standout favorite of mine, and the second was a cover of "You Keep Me Hangin' On" by the Norwegian band Theatre of Tragedy. I found both songs to be incredibly addictive, so I decided I would try to look for a CD of hers, which brought me here.
The Singles Collection includes 17 excellent pop tracks (or a combination of punk-pop, dancepop and soft ballads) from the 80s and early 90s. Beginning with the faster-paced anthems like "Kids in America" and "Chequered Love", and ending with the calmer, smoother sounds of "In My Life" and the "If I Can't Have You" cover, this compilation offers an excellent insight into the changes of Kim's character and voice over the years. Meanwhile, we have the energetic dancefloor hits "Never Trust a Stranger" and fan favorite "You Came", as well as downtuned ballads like "Child Come Away" and the overlooked "Cambodia" that make you wonder why Kim never completely broke through to the American mainstream.
In conclusion, I think any fan of 80s music should track this down. Although Madonna was the prime diva of the decade, Kim Wilde makes a nice entrance into second place. Classic stuff.
Tracklist:
01. Kids in America [0:03:25.49]
02. Chequered Love [0:03:21.84]
03. Water On Glass [0:03:35.76]
04. Cambodia [0:03:56.46]
05. View from a Bridge [0:03:30.40]
06. Child Come Away [0:04:04.84]
07. Love Blonde [0:03:32.62]
08. The Second Time [0:03:52.90]
09. Rage to Love [0:04:19.89]
10. You Keep Me Hangin' On [0:04:15.37]
11. Another Step (Closer to You) [0:03:31.36]
12. You Came [0:03:30.93]
13. Never Trust a Stranger [0:04:05.70]
14. Four Letter Word [0:04:02.89]
15. Love is Holy [0:04:02.60]
16. If I Can't Have You [0:03:28.60]
17. In My Life [0:03:46.93]
Exact Audio Copy V0.99 prebeta 5 from 4. May 2009
EAC extraction logfile from 6. December 2009, 16:11
Kim Wilde / The Singles Collection 1981-1993
Used drive : PLEXTOR DVDR PX-716A Adapter: 0 ID: 0
Read mode : Secure
Utilize accurate stream : Yes
Defeat audio cache : Yes
Make use of C2 pointers : No
Read offset correction : 30
Overread into Lead-In and Lead-Out : Yes
Fill up missing offset samples with silence : Yes
Delete leading and trailing silent blocks : No
Null samples used in CRC calculations : Yes
Used interface : Native Win32 interface for Win NT & 2000
Used output format : User Defined Encoder
Selected bitrate : 1024 kBit/s
Quality : High
Add ID3 tag : No
Command line compressor : C:Program FilesFLACflac.exe
Additional command line options : -8 -V -T "ARTIST=%a" -T "TITLE=%t" -T "ALBUM=%g" -T "DATE=%y" -T "TRACKNUMBER=%n" -T "GENRE=%m" -T "COMMENT=EAC FLAC -8" %s
TOC of the extracted CD
Track | Start | Length | Start sector | End sector
---------------------------------------------------------
1 | 0:00.00 | 3:25.37 | 0 | 15411
2 | 3:25.37 | 3:21.63 | 15412 | 30549
3 | 6:47.25 | 3:35.57 | 30550 | 46731
4 | 10:23.07 | 3:56.35 | 46732 | 64466
5 | 14:19.42 | 3:30.30 | 64467 | 80246
6 | 17:49.72 | 4:04.63 | 80247 | 98609
7 | 21:54.60 | 3:32.47 | 98610 | 114556
8 | 25:27.32 | 3:52.68 | 114557 | 132024
9 | 29:20.25 | 4:19.67 | 132025 | 151516
10 | 33:40.17 | 4:15.28 | 151517 | 170669
11 | 37:55.45 | 3:31.27 | 170670 | 186521
12 | 41:26.72 | 3:30.70 | 186522 | 202341
13 | 44:57.67 | 4:05.53 | 202342 | 220769
14 | 49:03.45 | 4:02.67 | 220770 | 238986
15 | 53:06.37 | 4:02.45 | 238987 | 257181
16 | 57:09.07 | 3:28.45 | 257182 | 272826
17 | 60:37.52 | 3:46.70 | 272827 | 289846
Range status and errors
Selected range
Filename E:mtorrent_flacKim Wilde - The Singles Collection (Japan)Kim Wilde - The Singles Collection 1981-1993.wav
Peak level 100.0 %
Range quality 100.0 %
Test CRC 05EA6816
Copy CRC 05EA6816
Copy OK
No errors occurred
AccurateRip summary
Track 1 not present in database
Track 2 not present in database
Track 3 not present in database
Track 4 not present in database
Track 5 not present in database
Track 6 not present in database
Track 7 not present in database
Track 8 not present in database
Track 9 not present in database
Track 10 not present in database
Track 11 not present in database
Track 12 not present in database
Track 13 not present in database
Track 14 not present in database
Track 15 not present in database
Track 16 not present in database
Track 17 not present in database
None of the tracks are present in the AccurateRip database
End of status report
Download Kim Wilde - The Singles Collection 1981-1993 [Japan, MVCM-415] :
Turbobit.net:
Hotfile.com
Sharingmatrix.com:
Rapidshare.com:
Thanks to the original Publicist "Konstantin_slash"



Alternative download links



Related MP3 FLAC to Kim Wilde - The Singles Collection 1981-1993 Japan, MVCM-415
Feedback
All rights reserved.
WEBBG.com © 2000-2018