The Real Group - In The Middle Of Life (2005)
MP3 FLAC WMA APE HD

The Real Group - In The Middle Of Life (2005)

Artist: The Real Group
Title Of Album: In The Middle Of Life
Year Of Release: 2005
Label: EMI
Genre: Jazz, Vocal Jazz, Pop
Quality: APE (Img,cue,log,scans)|MP3
Bitrate: lossless | 320kbps
Total Time: 49:18 min
Total Size: 272 mb/120 mb (+5%rec)
TRACKLIST:
1. Prime Time Blues
2. Mister Father
3. Words
4. Spring Is Coming
5. I Tried
6. Friendship
7. Ae You Coming To Me
8. Grass Grows Greener
9. My Hidden World
10. Perfect Life
11. Quiet Song
12. Given
13. Gota
PERSONNEL:
Anders Edenroth - counter tenor;
Peder Karlsson - tenor;
Anders Jalkeus - bass;
Margareta Jalkeus - soprano;
Katarina Henryson - alto.
Exact Audio Copy V0.99 prebeta 4 from 23. January 2008
EAC extraction logfile from 16. May 2008, 13:40
Real Group / In the Middle of Life
Used drive : SONY DVD RW DRU-190A Adapter: 0 ID: 0
Read mode : Secure
Utilize accurate stream : Yes
Defeat audio cache : Yes
Make use of C2 pointers : No
Read offset correction : 6
Overread into Lead-In and Lead-Out : No
Fill up missing offset samples with silence : Yes
Delete leading and trailing silent blocks : No
Null samples used in CRC calculations : No
Used interface : Installed external ASPI interface
Used output format : Internal WAV Routines
Sample format : 44.100 Hz; 16 Bit; Stereo
TOC of the extracted CD
Track | Start | Length | Start sector | End sector
---------------------------------------------------------
1 | 0:00.00 | 3:15.46 | 0 | 14670
2 | 3:15.46 | 3:54.65 | 14671 | 32285
3 | 7:10.36 | 3:04.54 | 32286 | 46139
4 | 10:15.15 | 3:53.64 | 46140 | 63678
5 | 14:09.04 | 3:24.15 | 63679 | 78993
6 | 17:33.19 | 4:44.63 | 78994 | 100356
7 | 22:18.07 | 3:26.40 | 100357 | 115846
8 | 25:44.47 | 3:00.33 | 115847 | 129379
9 | 28:45.05 | 4:49.47 | 129380 | 151101
10 | 33:34.52 | 3:13.60 | 151102 | 165636
11 | 36:48.37 | 3:06.18 | 165637 | 179604
12 | 39:54.55 | 4:38.22 | 179605 | 200476
13 | 44:33.02 | 4:45.02 | 200477 | 221853
Range status and errors
Selected range
Filename I:AudioThe Real GroupIn The middle Of Life Real Group - In the Middle of Life.wav
Peak level 98.8 %
Range quality 100.0 %
Copy CRC 3E5E9162
Copy OK
No errors occurred

AccurateRip summary

Track 1 accurately ripped (confidence 5) [38A5BA68]
Track 2 accurately ripped (confidence 5) [1055FE0F]
Track 3 accurately ripped (confidence 5) [8CF9875F]
Track 4 accurately ripped (confidence 5) [932BEBEC]
Track 5 accurately ripped (confidence 5) [34670B2A]
Track 6 accurately ripped (confidence 5) [985BD15E]
Track 7 accurately ripped (confidence 5) [59D961A7]
Track 8 accurately ripped (confidence 5) [BFBE8FED]
Track 9 accurately ripped (confidence 5) [00B57ED5]
Track 10 accurately ripped (confidence 5) [E667C0C0]
Track 11 accurately ripped (confidence 5) [E018596B]
Track 12 accurately ripped (confidence 5) [9576F08A]
Track 13 accurately ripped (confidence 5) [33A29FFE]

All tracks accurately ripped
End of status report
The Real Group - шведская вокальная группа.
Их принято считать джазистами, хотя The Real Group (кстати, название навеяно популярным джазовым сборником) очень нравятся и любителям поп-музыки. Американская Ассоциация Хоровой Музыки назвала их лучшими вокалистами мира.
Первую пластинку выпустили в 1987 году.
The Real Group is a professional a cappella group from Sweden, consisting of five members: soprano Emma Nilsdotter, alto Katarina Henryson, tenor Anders Edenroth, baritone Peder Karlsson, and bass Anders Jalkéus. The group's members compose or arrange most of the songs that they perform. A large portion of the group's recorded songs are sung in English, with the remainder being almost entirely in Swedish.
The group cites Bobby McFerrin as an early source of inspiration: "What we do may never have happened if we hadn't heard his [albums].".
The Real Group has performed in more than 2000 concerts worldwide. Nonetheless, the group does not tour often in the United States; to avoid extended absence from their families, the group has a policy not to take tours lasting longer than one week, and tour-booking management agencies in the US don't generally accept such relatively short tour lengths.
In 2002 The Real Group performed at the opening ceremony of The FIFA World Cup in Seoul. They performed live to the audience of 60,000. On December 22, 1993, to commemorate the fiftieth birthday of Queen Silvia of Sweden, The Real Group backed up former ABBA member Anni-Frid Lyngstad in a performance of the ABBA hit "Dancing Queen", using an a cappella arrangement that would later be released on the album "Varför får man inte bara vara som man är".
Hotfile.com:
Fileserve.com:
MP3:




Alternative download links

part1 part2 part1 part2 HotFile FileServe

Related MP3 FLAC to The Real Group - In The Middle Of Life (2005)
Feedback
All rights reserved.
WEBBG.com © 2000-2018