Luis Perez - Tales of Astral Travelers (1998)
MP3 FLAC WMA APE HD

Luis Perez - Tales of Astral Travelers (1998)

Artist: Luis Perez
Title Of Album: Tales of Astral Travelers
Year Of Release: 1998
Label: DOMO
Genre: New Age, Native American
Quality: FLAC (tracks+.cue) + log
Bitrate: Lossless
Total Time: 52:44
Total Size: 329 Mb
Tales of Astral Travelers features wind and percussion music native to Pre-Columbian Mexican Cultures. Lush arrangements that include strings, guitars, synthesizers and accordions evoke folkloric themes and evocative aural landscapes. Let this astral voyage move you forward and back, to the past and future with indigenous instrumentation and ancient culture.
Tracklist:
01. Distant Voices (6:18)
02. Sleeping Woman (5:36)
03. Lunar Dance (6:49)
04. Insectos (2:07)
05. Temple of the Inscriptions (4:33)
06. Auroraґs Dream (6:08)
07. Alba (7:56)
08. Amphibians (1:56)
09. The Sacred Mountain (11:22)
Exact Audio Copy V0.99 prebeta 5 from 4. May 2009
EAC extraction logfile from 12. October 2010, 23:24
Luis Perez / Tales of Astral Travelers
Used drive : PIONEER DVD-RW DVR-218L Adapter: 2 ID: 0
Read mode : Secure
Utilize accurate stream : Yes
Defeat audio cache : Yes
Make use of C2 pointers : No
Read offset correction : 6
Overread into Lead-In and Lead-Out : No
Fill up missing offset samples with silence : Yes
Delete leading and trailing silent blocks : No
Null samples used in CRC calculations : Yes
Used interface : Installed external ASPI interface
Gap handling : Appended to previous track
Used output format : User Defined Encoder
Selected bitrate : 768 kBit/s
Quality : High
Add ID3 tag : No
Command line compressor : C:Program FilesExact Audio CopyFLACFLAC.EXE
Additional command line options : -8 -V -T "ARTIST=%a" -T "TITLE=%t" -T "ALBUM=%g" -T "DATE=%y" -T "TRACKNUMBER=%n" -T "GENRE=%m" -T "COMMENT=EAC FLAC -8" %s
TOC of the extracted CD
Track | Start | Length | Start sector | End sector
---------------------------------------------------------
1 | 0:00.00 | 6:17.45 | 0 | 28319
2 | 6:17.45 | 5:35.48 | 28320 | 53492
3 | 11:53.18 | 6:48.40 | 53493 | 84132
4 | 18:41.58 | 2:06.66 | 84133 | 93648
5 | 20:48.49 | 4:33.16 | 93649 | 114139
6 | 25:21.65 | 6:08.30 | 114140 | 141769
7 | 31:30.20 | 7:56.22 | 141770 | 177491
8 | 39:26.42 | 1:55.39 | 177492 | 186155
9 | 41:22.06 | 11:22.09 | 186156 | 237314
Track 1
Filename D:ripped by boccador1. Luis Perez – Distant Voices.wav
Pre-gap length 0:00:02.00
Peak level 98.8 %
Track quality 100.0 %
Test CRC E462E92F
Copy CRC E462E92F
Track not present in AccurateRip database
Copy OK
Track 2
Filename D:ripped by boccador2. Luis Perez – Sleeping Woman.wav
Pre-gap length 0:00:00.88
Peak level 98.8 %
Track quality 100.0 %
Test CRC 61A6C4DA
Copy CRC 61A6C4DA
Track not present in AccurateRip database
Copy OK
Track 3
Filename D:ripped by boccador3. Luis Perez – Lunar Dance.wav
Pre-gap length 0:00:00.97
Peak level 98.8 %
Track quality 100.0 %
Test CRC 500EA8F6
Copy CRC 500EA8F6
Track not present in AccurateRip database
Copy OK
Track 4
Filename D:ripped by boccador4. Luis Perez – Insectos.wav
Pre-gap length 0:00:02.65
Peak level 51.4 %
Track quality 100.0 %
Test CRC 94C9DADF
Copy CRC 94C9DADF
Track not present in AccurateRip database
Copy OK
Track 5
Filename D:ripped by boccador5. Luis Perez – Temple of the Inscriptions.wav
Pre-gap length 0:00:02.81
Peak level 78.5 %
Track quality 100.0 %
Test CRC 7B7BE24E
Copy CRC 7B7BE24E
Track not present in AccurateRip database
Copy OK
Track 6
Filename D:ripped by boccador6. Luis Perez – Auroraґs Dream.wav
Pre-gap length 0:00:01.38
Peak level 98.8 %
Track quality 100.0 %
Test CRC 7F7F2EDF
Copy CRC 7F7F2EDF
Track not present in AccurateRip database
Copy OK
Track 7
Filename D:ripped by boccador7. Luis Perez – Alba.wav
Pre-gap length 0:00:00.90
Peak level 98.8 %
Track quality 100.0 %
Test CRC F17C1826
Copy CRC F17C1826
Track not present in AccurateRip database
Copy OK
Track 8
Filename D:ripped by boccador8. Luis Perez – Amphibians.wav
Pre-gap length 0:00:02.69
Peak level 44.1 %
Track quality 100.0 %
Test CRC F01BB213
Copy CRC F01BB213
Track not present in AccurateRip database
Copy OK
Track 9
Filename D:ripped by boccador9. Luis Perez – The Sacred Mountain.wav
Pre-gap length 0:00:00.84
Peak level 98.8 %
Track quality 100.0 %
Test CRC 7EEEDFA3
Copy CRC 7EEEDFA3
Track not present in AccurateRip database
Copy OK
None of the tracks are present in the AccurateRip database
No errors occurred
End of status report
FileSonic.com
Turbobit.net



Alternative download links

DOWNLOAD

Related MP3 FLAC to Luis Perez - Tales of Astral Travelers (1998)
Feedback
All rights reserved.
WEBBG.com © 2000-2018