Stevie Ray Vaughan And Double Trouble - Couldnt Stand the Weather (2 CD Legacy Edition) (2010)
MP3 FLAC WMA APE HD

Stevie Ray Vaughan And Double Trouble - Couldnt Stand the Weather (2 CD Legacy Edition) (2010)

Artist: Stevie Ray Vaughan And Double Trouble
Title Of Album: Couldn't Stand the Weather (2 CD Legacy Edition)
Year Of Release: 2010
Label: Sony Legacy
Genre: Electriс Blues, Blues-Rock
Quality: lossless
Bitrate: FLAC image+cue+log+booklet
Total Time: 01:18:51+01:15:49
Total Size: 1.04 GB (+3%)
Digitally remastered and expanded two CD Legacy Edition of the Blues guitarist's 1984 album. This edition contains 16 previously unreleased tracks, studio outtakes and the whole live recording of Vaughan & Double Trouble's 1984 performance at the Spectrum in Montreal. A 24 colour page booklet completes the package with liner notes by Guitar World Associate Editor Andy Aledort as well as commentary by Double Trouble band mates Chris Layton and Tommy Shannon.
CD 1
01. Scuttle Buttin' (1:52)
02. Couldn't Stand The Weather (4:41)
03. The Things (That) I Used To Do (4:55)
04. Voodoo Child (Slight Return) (7:59)
05. Cold Shot (4:01)
06. Tin Pan Alley (AKA Roughest Place In Town) (9:11)
07. Honey Bee (2:43)
08. Stang's Swang (2:50)
BONUS
09. Empty Arms (3:28)
10. Come On (Part III) (4:33)
11. Look At Little Sister (2:46)
12. The Sky Is Crying (Previously Unreleased 1984 Version) (4:11)
13. Hide Away (4:03)
14. Give Me Back My Wig (4:07)
15. Boot Hill (Previously Unreleased 1984 Version) (2:23)
16. Wham! (2:26)
17. Close To You (3:10)
18. Little Wing (6:48)
19. Stang's Swang (Previously Unreleased Alternate Take) (2:44)
Exact Audio Copy V0.99 prebeta 4 from 23. January 2008
Отчёт EAC об извлечении, выполненном 24. июля 2010, 9:11
Stevie Ray Vaughan And Double Trouble / Couldn't Stand the Weather (Legacy Edition)(CD 1)
Дисковод: PLEXTOR DVDR PX-880SA Adapter: 1 ID: 1
Режим чтения : Достоверность
Использование точного потока : Да
Отключение кэша аудио : Да
Использование указателей C2 : Нет
Коррекция смещения при чтении : 6
Способность читать области Lead-in и Lead-out : Нет
Заполнение пропущенных сэмплов тишиной : Да
Удаление блоков с тишиной в начале и конце : Нет
При вычислениях CRC использовались нулевые сэмплы : Да
Интерфейс : Установленный внешний ASPI-интерфейс
Выходной формат : Пользовательский кодировщик
Выбранный битрейт : 1024 kBit/s
Качество : Высокий
Добавление ID3-тэга : Нет
Утилита сжатия : C:Program FilesExact Audio CopyFLACFLAC.EXE
Дополнительные параметры : -6 -V -T "ARTIST=%a" -T "TITLE=%t" -T "ALBUM=%g" -T "DATE=%y" -T "TRACKNUMBER=%n" -T "GENRE=%m" -T "COMMENT=%e" %s -o %d
TOC извлечённого CD
Трек | Старт | Длительность | Начальный сектор | Конечный сектор
---------------------------------------------------------------------
1 | 0:00.00 | 1:52.06 | 0 | 8405
2 | 1:52.06 | 4:41.19 | 8406 | 29499
3 | 6:33.25 | 4:55.24 | 29500 | 51648
4 | 11:28.49 | 7:59.17 | 51649 | 87590
5 | 19:27.66 | 4:01.31 | 87591 | 105696
6 | 23:29.22 | 9:11.59 | 105697 | 147080
7 | 32:41.06 | 2:43.09 | 147081 | 159314
8 | 35:24.15 | 2:50.05 | 159315 | 172069
9 | 38:14.20 | 3:28.68 | 172070 | 187737
10 | 41:43.13 | 4:33.51 | 187738 | 208263
11 | 46:16.64 | 2:46.55 | 208264 | 220768
12 | 49:03.44 | 4:11.53 | 220769 | 239646
13 | 53:15.22 | 4:03.02 | 239647 | 257873
14 | 57:18.24 | 4:07.44 | 257874 | 276442
15 | 61:25.68 | 2:23.25 | 276443 | 287192
16 | 63:49.18 | 2:26.43 | 287193 | 298185
17 | 66:15.61 | 3:10.73 | 298186 | 312508
18 | 69:26.59 | 6:48.73 | 312509 | 343181
19 | 76:15.57 | 2:44.21 | 343182 | 355502
Характеристики диапазона извлечения и сообщения об ошибках
Выбранный диапазон
Имя файла I:BitCometStevie Ray Vaughan And Double Trouble-Couldn't Stand the Weather (Legacy Edition)CD 11Stevie Ray Vaughan And Double Trouble - Couldn't Stand the Weather (Legacy Edition)(CD 1).wav
Пиковый уровень 100.0 %
Качество диапазона 100.0 %
CRC копии 0E6D3995
Копирование... OK
Ошибок не произошло

AccurateRip: сводка

Трек 1 нет в базе данных
Трек 2 нет в базе данных
Трек 3 нет в базе данных
Трек 4 нет в базе данных
Трек 5 нет в базе данных
Трек 6 нет в базе данных
Трек 7 нет в базе данных
Трек 8 нет в базе данных
Трек 9 нет в базе данных
Трек 10 нет в базе данных
Трек 11 нет в базе данных
Трек 12 нет в базе данных
Трек 13 нет в базе данных
Трек 14 нет в базе данных
Трек 15 нет в базе данных
Трек 16 нет в базе данных
Трек 17 нет в базе данных
Трек 18 нет в базе данных
Трек 19 нет в базе данных

Ни одного трека нет в базе AccurateRip
Конец отчёта
CD 2
20. Testify (Live at The Spectrum, Montreal; August 17 1984) (Late Show) (4:36)
21. Voodoo Child (Slight Return) (Live at The Spectrum, Montreal; August 17 1984) (Late Show) (11:53)
22. The Things (That) I Used To Do (Live at The Spectrum, Montreal; August 17 1984) (Late Show) (5:30)
23. Honey Bee (Live at The Spectrum, Montreal; August 17 1984) (Late Show) (2:32)
24. Couldn't Stand The Weather (Live at The Spectrum, Montreal; August 17 1984) (Late Show) (4:53)
25. Cold Shot (Live at The Spectrum, Montreal; August 17 1984) (Late Show) (4:05)
26. Tin Pan Alley (AKA Roughest Place In Town) (Live at The Spectrum, Montreal; August 17 1984) (Late Show) (10:30)
27. Love Struck Baby (Live at The Spectrum, Montreal; August 17 1984) (Late Show) (3:00)
28. Texas Flood (Live at The Spectrum, Montreal; August 17 1984) (Late Show) (8:20)
29. Band Intos-Encores (Live at The Spectrum, Montreal; August 17 1984) (Late Show) (1:18)
30. Stang's Swang (Live at The Spectrum, Montreal; August 17 1984) (Late Show) (3:07)
31. Lenny (Live at The Spectrum, Montreal; August 17 1984) (Late Show) (11:07)
32. Pride And Joy (Live at The Spectrum, Montreal; August 17 1984) (Late Show) (4:59)
Exact Audio Copy V0.99 prebeta 4 from 23. January 2008
Отчёт EAC об извлечении, выполненном 24. июля 2010, 9:28
Stevie Ray Vaughan And Double Trouble / Couldn't Stand the Weather (Legacy Edition)(CD 2)
Дисковод: PLEXTOR DVDR PX-880SA Adapter: 1 ID: 1
Режим чтения : Достоверность
Использование точного потока : Да
Отключение кэша аудио : Да
Использование указателей C2 : Нет
Коррекция смещения при чтении : 6
Способность читать области Lead-in и Lead-out : Нет
Заполнение пропущенных сэмплов тишиной : Да
Удаление блоков с тишиной в начале и конце : Нет
При вычислениях CRC использовались нулевые сэмплы : Да
Интерфейс : Установленный внешний ASPI-интерфейс
Выходной формат : Пользовательский кодировщик
Выбранный битрейт : 1024 kBit/s
Качество : Высокий
Добавление ID3-тэга : Нет
Утилита сжатия : C:Program FilesExact Audio CopyFLACFLAC.EXE
Дополнительные параметры : -6 -V -T "ARTIST=%a" -T "TITLE=%t" -T "ALBUM=%g" -T "DATE=%y" -T "TRACKNUMBER=%n" -T "GENRE=%m" -T "COMMENT=%e" %s -o %d
TOC извлечённого CD
Трек | Старт | Длительность | Начальный сектор | Конечный сектор
---------------------------------------------------------------------
1 | 0:00.00 | 4:36.54 | 0 | 20753
2 | 4:36.54 | 11:53.32 | 20754 | 74260
3 | 16:30.11 | 5:30.21 | 74261 | 99031
4 | 22:00.32 | 2:32.33 | 99032 | 110464
5 | 24:32.65 | 4:53.12 | 110465 | 132451
6 | 29:26.02 | 4:05.33 | 132452 | 150859
7 | 33:31.35 | 10:30.00 | 150860 | 198109
8 | 44:01.35 | 3:00.39 | 198110 | 211648
9 | 47:01.74 | 8:20.42 | 211649 | 249190
10 | 55:22.41 | 1:18.25 | 249191 | 255065
11 | 56:40.66 | 3:07.08 | 255066 | 269098
12 | 59:47.74 | 11:07.15 | 269099 | 319138
13 | 70:55.14 | 4:59.22 | 319139 | 341585
Характеристики диапазона извлечения и сообщения об ошибках
Выбранный диапазон
Имя файла I:BitCometStevie Ray Vaughan And Double Trouble-Couldn't Stand the Weather (Legacy Edition)CD 2Stevie Ray Vaughan And Double Trouble - Couldn't Stand the Weather (Legacy Edition)(CD 2).wav
Пиковый уровень 100.0 %
Качество диапазона 100.0 %
CRC копии 04A2F0DB
Копирование... OK
Ошибок не произошло

AccurateRip: сводка

Трек 1 нет в базе данных
Трек 2 нет в базе данных
Трек 3 нет в базе данных
Трек 4 нет в базе данных
Трек 5 нет в базе данных
Трек 6 нет в базе данных
Трек 7 нет в базе данных
Трек 8 нет в базе данных
Трек 9 нет в базе данных
Трек 10 нет в базе данных
Трек 11 нет в базе данных
Трек 12 нет в базе данных
Трек 13 нет в базе данных

Ни одного трека нет в базе AccurateRip
Конец отчёта
Download:
(sharingmatrix.com)
| | |
(letitbit.net)
| | |
(fileserve.com)
| | |
(hotfile.com)
| | |

Password: muzik



Alternative download links

Download part 1 Download part 2 Download part 3 Download part 4 Download part 1 Download part 2 Download part 3 Download part 4 Download part 1 Download part 2 Download part 3 Download part 4 Download part 1 Download part 2 Download part 3 Download part 4

Related MP3 FLAC to Stevie Ray Vaughan And Double Trouble - Couldnt Stand the Weather (2 CD Legacy Edition) (2010)
Feedback
All rights reserved.
WEBBG.com © 2000-2018