Marc Enfroy - Unconditional (2011)
MP3 FLAC WMA APE HD

Marc Enfroy - Unconditional (2011)

Artist: Marc Enfroy
Title Of Album: Unconditional
Year Of Release: 2011
Label: Enfroy Music
Genre: New Age, Cinematic Piano
Quality: FLAC (tracks+.cue) + log
Bitrate: Lossless
Total Time: 47:21
Total Size: 293 Mb
Inspired by the death of his sister from melanoma, Marc Enfroy (pronounced EN-froy) began teaching himself to compose music in 2006. By interweaving beautiful instrumental piano melodies with touching orchestral arrangements in a style he calls Cinematic Piano, Marc has soothed many hearts with his warm and original compositions. This prompted radio broadcasters worldwide to bestow Marc with the Best Neo-Classical Album Award for his debut CD, “Unbounded”, in the 2008 NAR Lifestyle Music Awards, where he also received a nomination for Best New Artist.
Tracklist:
1. A Good Heart (05:29)
2. Uniqueness (04:42)
3. Unconditional (05:17)
4. A Beautiful Soul (05:18)
5. A Positive Spirit (04:29)
6. Peacefulness (04:59)
7. Confidence (03:59)
8. Safe and Secure (04:21)
9. Admiration (04:22)
10. Reaching Authenticity (04:19)10. April 2011, 13:09
Exact Audio Copy V1.0 beta 1 from 15. November 2010
EAC extraction logfile from 10. April 2011, 13:09
Marc Enfroy / Unconditional
Used drive : Optiarc DVD RW AD-7243S Adapter: 3 ID: 1
Read mode : Secure
Utilize accurate stream : Yes
Defeat audio cache : Yes
Make use of C2 pointers : No
Read offset correction : 48
Overread into Lead-In and Lead-Out : No
Fill up missing offset samples with silence : Yes
Delete leading and trailing silent blocks : No
Null samples used in CRC calculations : Yes
Used interface : Native Win32 interface for Win NT & 2000
Gap handling : Appended to previous track
Used output format : User Defined Encoder
Selected bitrate : 896 kBit/s
Quality : High
Add ID3 tag : No
Command line compressor : C:Program Files (x86)Exact Audio CopyFLACFLAC.EXE
Additional command line options : -6 -V -T "ARTIST=%a" -T "TITLE=%t" -T "ALBUM=%g" -T "DATE=%y" -T "TRACKNUMBER=%n" -T "GENRE=%m" -T "COMMENT=%e" %j--picture="%i"%j %s -o %d
TOC of the extracted CD
Track | Start | Length | Start sector | End sector
---------------------------------------------------------
1 | 0:00.00 | 5:29.14 | 0 | 24688
2 | 5:29.14 | 4:42.65 | 24689 | 45903
3 | 10:12.04 | 5:17.09 | 45904 | 69687
4 | 15:29.13 | 5:18.15 | 69688 | 93552
5 | 20:47.28 | 4:29.16 | 93553 | 113743
6 | 25:16.44 | 4:59.47 | 113744 | 136215
7 | 30:16.16 | 3:59.34 | 136216 | 154174
8 | 34:15.50 | 4:21.59 | 154175 | 173808
9 | 38:37.34 | 4:22.35 | 173809 | 193493
10 | 42:59.69 | 4:19.11 | 193494 | 212929
Track 1
Filename C:Temp1. Marc Enfroy - A Good Heart.wav
Pre-gap length 0:00:02.00
Peak level 97.7 %
Extraction speed 2.4 X
Track quality 100.0 %
Test CRC 2B844C99
Copy CRC 2B844C99
Track not present in AccurateRip database
Copy OK
Track 2
Filename C:Temp2. Marc Enfroy - Uniqueness.wav
Peak level 97.7 %
Extraction speed 2.7 X
Track quality 100.0 %
Test CRC 422D50C7
Copy CRC 422D50C7
Track not present in AccurateRip database
Copy OK
Track 3
Filename C:Temp3. Marc Enfroy - Unconditional.wav
Peak level 97.7 %
Extraction speed 2.7 X
Track quality 99.9 %
Test CRC F33522EA
Copy CRC F33522EA
Track not present in AccurateRip database
Copy OK
Track 4
Filename C:Temp4. Marc Enfroy - A Beautiful Soul.wav
Peak level 97.7 %
Extraction speed 3.3 X
Track quality 100.0 %
Test CRC A680765F
Copy CRC A680765F
Track not present in AccurateRip database
Copy OK
Track 5
Filename C:Temp5. Marc Enfroy - A Positive Spirit.wav
Peak level 97.7 %
Extraction speed 3.5 X
Track quality 100.0 %
Test CRC 7C54A2DE
Copy CRC 7C54A2DE
Track not present in AccurateRip database
Copy OK
Track 6
Filename C:Temp6. Marc Enfroy - Peacefulness.wav
Peak level 97.7 %
Extraction speed 3.7 X
Track quality 100.0 %
Test CRC E1A7D2BC
Copy CRC E1A7D2BC
Track not present in AccurateRip database
Copy OK
Track 7
Filename C:Temp7. Marc Enfroy - Confidence.wav
Peak level 97.7 %
Extraction speed 3.8 X
Track quality 100.0 %
Test CRC C46D3096
Copy CRC C46D3096
Track not present in AccurateRip database
Copy OK
Track 8
Filename C:Temp8. Marc Enfroy - Safe and Secure.wav
Peak level 97.7 %
Extraction speed 4.0 X
Track quality 100.0 %
Test CRC C7BC67F0
Copy CRC C7BC67F0
Track not present in AccurateRip database
Copy OK
Track 9
Filename C:Temp9. Marc Enfroy - Admiration.wav
Peak level 97.7 %
Extraction speed 4.2 X
Track quality 100.0 %
Test CRC 61DDAB99
Copy CRC 61DDAB99
Track not present in AccurateRip database
Copy OK
Track 10
Filename C:Temp10. Marc Enfroy - Reaching Authenticity.wav
Peak level 97.7 %
Extraction speed 4.3 X
Track quality 100.0 %
Test CRC B3BE45E6
Copy CRC B3BE45E6
Track not present in AccurateRip database
Copy OK
None of the tracks are present in the AccurateRip database
No errors occurred
End of status report
FileSonic
Turbobit



Alternative download links

DOWNLOAD

Related MP3 FLAC to Marc Enfroy - Unconditional (2011)
Feedback
All rights reserved.
WEBBG.com © 2000-2018