Voodooland - Give Me Air (2004)
MP3 FLAC WMA APE HD

Voodooland - Give Me Air (2004)

Artist: Voodooland
Title Of Album: Give Me Air
Year Of Release: 2004
Label: S.M.C Records
Genre: Hard Rock
Quality: FLAC (image+.cue) + log
Bitrate: Lossless
Total Time: 59:16
Total Size: 463 Mb
For those unfamiliar: Karl Cochran is an accomplished guitarist best known as a sideman for such notables as Ace Frehley & Joe Lynn Turner. Voodooland is his star-fueled project, showcasing 15 smokin’ tracks of groove-laden, retro-friendly originals.
Tracklist:
01. Give Me Air
02. Make Your Mind Up
03. Inside Looking Out
04. Don't Say That You Love Me
05. Caroline
06. I'll Lay Down
07. Freedom
08. Phoenix Rising
09. You & I (electric)
10. Breaking Away
11. Take Me Back
12. Open Fire
13. River Of Dreams
14. You & I (acoustic)
15. Freedom (demo hidden track)
Exact Audio Copy V0.99 prebeta 1 from 25. May 2007
EAC extraction logfile from 24. May 2011, 23:53
Voodooland / Give Me Air
Used drive : Optiarc DVD RW AD-7201S Adapter: 1 ID: 1
Read mode : Secure
Utilize accurate stream : Yes
Defeat audio cache : Yes
Make use of C2 pointers : No
Read offset correction : 48
Overread into Lead-In and Lead-Out : No
Fill up missing offset samples with silence : Yes
Delete leading and trailing silent blocks : No
Used interface : Installed external ASPI interface
Used output format : Internal WAV Routines
Sample format : 44.100 Hz; 16 Bit; Stereo
TOC of the extracted CD
Track | Start | Length | Start sector | End sector
---------------------------------------------------------
1 | 0:00.01 | 4:01.14 | 1 | 18089
2 | 4:01.15 | 4:08.05 | 18090 | 36694
3 | 8:09.20 | 4:00.71 | 36695 | 54765
4 | 12:10.16 | 5:15.26 | 54766 | 78416
5 | 17:25.42 | 4:23.68 | 78417 | 98209
6 | 21:49.35 | 4:03.32 | 98210 | 116466
7 | 25:52.67 | 3:48.19 | 116467 | 133585
8 | 29:41.11 | 3:23.40 | 133586 | 148850
9 | 33:04.51 | 4:38.05 | 148851 | 169705
10 | 37:42.56 | 3:31.34 | 169706 | 185564
11 | 41:14.15 | 3:39.72 | 185565 | 202061
12 | 44:54.12 | 2:54.65 | 202062 | 215176
13 | 47:49.02 | 3:58.49 | 215177 | 233075
14 | 51:47.51 | 3:33.34 | 233076 | 249084
15 | 55:21.10 | 3:55.46 | 249085 | 266755
Range status and errors
Selected range
Filename E:CUEVoodooland - Give Me Air.wav
Peak level 100.0 %
Range quality 99.9 %
Copy CRC 1B9CCE21
Copy OK
No errors occurred
End of status report
FileSonic
Wupload



Alternative download links

DOWNLOAD

Related MP3 FLAC to Voodooland - Give Me Air (2004)
Feedback
All rights reserved.
WEBBG.com © 2000-2018