Quincy Jones - Back on the Block (1989)
MP3 FLAC WMA APE HD

Quincy Jones - Back on the Block (1989)

Artist: Quincy Jones
Title Of Album: Back on the Block
Year Of Release: November 8, 1989
Label: Warner Bros / Wea
Genre: Soul-Jazz, RnB/Swing, Hip Hop, Jazz
Quality: Flac(Image+Cue+Log+Covers)/mp3
Bitrate: Lossless/320kbps
Total Time: 58:20min
Total Size: 392Mb/138Mb
WebSite:
Tracklist:
1 Prologue (2 Q's Rap) See All 4 1:04
2 Back on the Block See All 4 6:34
3 I Don't Go For That See All 5 5:12
4 I'll Be Good To You See All 10
Chaka Khan, Quincy Jones Chaka Khan Ray Charles 4:55
5 The Verb to Be See All 3 0:29
6 Wee B. Doin' It See All 3 3:34
7 Places You Find Love, The See All 4 6:26
8 Jazz Corner of the Word See All 3 2:54
9 Birdland See All 3 5:34
10 Septembro (Brazilian Wedding Song) See All 3 5:08
11 One Man Woman See All 3 3:45
12 Tomorrow (Better You, Better Me) See All 9 4:52
13 Prelude to the Garden See All 7 0:53
14 Secret Garden, The (Sweet Seduction Suite) See All 23 6:41
Куинси Джонс (Quincy Jones, род. 14.03.1933) - американский композитор, аранжировщик и музыкальный продюсер, саксофонист. Лауреат более 25 премий «Грэмми» (70 номинаций). Продюсер самого продаваемого Albumа в истории (Michael Jackson - Thriller).
В 10 лет начал играть в джаз-клубах. В 18 лет поступил в Бостонскую музыкальную школу (ныне Berklee School of Music). Оставил учёбу, чтобы участвовать в туре музыканта Лайонела Хэмптона. В 1956 году был музыкальным директором группы Диззи Гиллеспи. В 1960-х был аранжировщиком Пегги Ли, Фрэнка Синатры, Сары Воэн, Эллы Фицджералд.
Автор музыки к 50 фильмам ("Золото Маккенны", "Новые центурионы", "Остин Пауэрс", "Убить Билла" и др).
Exact Audio Copy V0.99 prebeta 4 from 23. January 2008
EAC Auslese-Logdatei vom 6. April 2009, 7:39
Quincy Jones / Back On The Block
Benutztes Laufwerk : AlViDrv BDDVDROM Adapter: 2 ID: 0
Lesemodus : Sicher
Benutze Accurate Stream : Ja
Audio Puffer abgeschaltet : Ja
Benutze C2 Fehlerinformationen : Nein
Leseoffset Korrektur : 102
Ьberlesen in das Lead-In und Lead-Out : Nein
Fьlle fehlende Offsetsample mit Stille auf : Ja
Lцsche fьhrende und nachfolgende stille Blцcke : Nein
Null Samples gehen in CRC Berechnungen ein : Ja
Benutzte Schnittstelle : Natьrliche Win32 Schnittstelle fьr Win NT/2000/XP
Benutztes Ausgabeformat : Benutzerdefinierter Komprimierer
Gewдhlte Bitrate : 768 kBit/s
Qualitдt : Hoch
Fьge ID3 Tag hinzu : Nein
Kommandozeilen Komprimierer : C:Program FilesExact Audio CopyFLACFLAC.EXE
Zusдtzliche Kommandozeilenoptionen : -6 -V -T "ARTIST=%a" -T "TITLE=%t" -T "ALBUM=%g" -T "DATE=%y" -T "TRACKNUMBER=%n" -T "GENRE=%m" -T "COMMENT=%e" %s -o %d
TOC der ausgelesenen CD
Track | Start | Lдnge | Startsektor | Endsektor
-------------------------------------------------------
1 | 0:00.00 | 1:06.65 | 0 | 5014
2 | 1:06.65 | 6:36.10 | 5015 | 34724
3 | 7:43.00 | 5:13.33 | 34725 | 58232
4 | 12:56.33 | 4:56.65 | 58233 | 80497
5 | 17:53.23 | 0:33.36 | 80498 | 83008
6 | 18:26.59 | 3:32.28 | 83009 | 98936
7 | 21:59.12 | 6:28.06 | 98937 | 128042
8 | 28:27.18 | 2:58.64 | 128043 | 141456
9 | 31:26.07 | 5:35.70 | 141457 | 166651
10 | 37:02.02 | 5:05.60 | 166652 | 189586
11 | 42:07.62 | 3:47.31 | 189587 | 206642
12 | 45:55.18 | 4:48.72 | 206643 | 228314
13 | 50:44.15 | 0:56.01 | 228315 | 232515
14 | 51:40.16 | 6:40.15 | 232516 | 262530
Bereichsstatus und Fehler
Gewдhlter Bereich
Dateiname C:DesktopQuincy Jones - Back on the BlockQuincy Jones - Back On The Block.wav
Spitzenpegel 100.0 %
Bereichsqualitдt 100.0 %
Kopie CRC FCDCF45E
Kopie OK
Keine Fehler aufgetreten
Ende des Statusreports
DOWNLOAD Lossless
Filesonic.com:
Fileserve.com:
DOWNLOAD MP3:




Alternative download links

part1 part2 part3 FileServe

Related MP3 FLAC to Quincy Jones - Back on the Block (1989)
Feedback
All rights reserved.
WEBBG.com © 2000-2018