David Odzela - Odzela (2002)
MP3 FLAC WMA APE HD

David Odzela - Odzela (2002)

Artist: David Odzela
Title Of Album: Odzela
Year Of Release: 2002
Label: SANO
Genre: Ethnic Jazz
Quality: FLAC (Img,cue,log,scans)|MP3
Bitrate: lossless | VBR ~170kbps
Total Time: 00:75:10 min
Total Size: 324 mb/106 mb (+5%rec)
Tracklist
01.Sadness
02. Altania
03. The Ballad
04. Bolero
05. The Restoresd Notes
06. My World
07. Unknown
08. Qalaquri
09. Serenada
10. Lazarus
Personnel:
David Odzelashvili — flute
Lasha Abashidze , Nodar Eqvtimishvili – bass guitar
Paata Andriadze — keyboards
Nika Abashidze , Merab Sanodze — percussion
Gia Salagishvili – drums
Patriccia Gatachega — vocals
Nika Cereteli – arranging
David Odzelashvili "Odzela" it wasn't easy to get such results, to make his own stilie, to create so called Antic Music. The information which he got from his ancestors helped him in this case. At the same time getting classical education helped him to achieve the top of success. He started plarted playing the flute in 1983. He is the graduator of Tbilisi Musical Academy, The Flute high school in Vena and graduated fron krakov Academy of Music.
Exact Audio Copy V0.99 prebeta 4 from 23. January 2008
EAC extraction logfile from 3. April 2009, 23:01
David Odzela / Odzela
Used drive : ASUS DRW-1814BL Adapter: 0 ID: 0
Read mode : Secure
Utilize accurate stream : Yes
Defeat audio cache : Yes
Make use of C2 pointers : No
Read offset correction : 6
Overread into Lead-In and Lead-Out : No
Fill up missing offset samples with silence : Yes
Delete leading and trailing silent blocks : No
Null samples used in CRC calculations : Yes
Used interface : Installed external ASPI interface
Used output format : Internal WAV Routines
Sample format : 44.100 Hz; 16 Bit; Stereo
TOC of the extracted CD
Track | Start | Length | Start sector | End sector
---------------------------------------------------------
1 | 0:00.00 | 10:31.67 | 0 | 47391
2 | 10:31.67 | 6:17.55 | 47392 | 75721
3 | 16:49.47 | 8:25.29 | 75722 | 113625
4 | 25:15.01 | 11:25.56 | 113626 | 165056
5 | 36:40.57 | 5:08.50 | 165057 | 188206
6 | 41:49.32 | 6:13.47 | 188207 | 216228
7 | 48:03.04 | 3:37.10 | 216229 | 232513
8 | 51:40.14 | 10:52.47 | 232514 | 281460
9 | 62:32.61 | 7:22.27 | 281461 | 314637
10 | 69:55.13 | 5:14.55 | 314638 | 338242
Range status and errors
Selected range
Filename C:Documents and SettingsSulkhanDesktopDato Odzelashvili - ODZELADavid Odzela - Odzela.wav
Peak level 100.0 %
Range quality 100.0 %
Copy CRC 06CC4CFF
Copy OK
No errors occurred

AccurateRip summary

Track 1 not present in database
Track 2 not present in database
Track 3 not present in database
Track 4 not present in database
Track 5 not present in database
Track 6 not present in database
Track 7 not present in database
Track 8 not present in database
Track 9 not present in database
Track 10 not present in database

None of the tracks are present in the AccurateRip database
End of status report
Lossless

MP3




Alternative download links

fileserve.com-1 fileserve.com-2 hotfile.com-1 hotfile.com-2 HOTFILE FILESERVE

Related MP3 FLAC to David Odzela - Odzela (2002)
Feedback
All rights reserved.
WEBBG.com © 2000-2018