Bering Strait - Pages
MP3 FLAC WMA APE HD

Bering Strait - Pages

Free download links


Bering Strait - Pages .zip
MP3 version ZIP archive

1824 downloads at 30 mb/s

Bering Strait - Pages .zip
FLAC/APE version ZIP archive

943 downloads at 22 mb/s
Artist: Bering Strait
Title Of Album: Bering Strait - Pages
Year Of Release: June 28, 2005
Label: Universal South
Genre: Country
Quality: FLAC
Bitrate: lossless-tracks +cue +log +Booklet/Scans
Total Size: ~277 MB
This sophomore album from Bering Strait, the clutch of Russian musicians with classical chops, makes less of a plea for mainstream success than their 2003 debut, settling more into a sort of Nickel Creek groove, with moody meditations on life and love and a flash-fingered, 'grassy, Jerry Douglas-produced instrumental, "From Ankara to Izmir," that should have live audiences standing up in wild cheers. They mine the Slavic mood on their opener, "Safe in My Lover's Arms," and its successor, the folk song "Oy, Moroz-Moroz," then move along to cover (less successfully) Fleetwood Mac's "You Make Lovin' Fun," in which lead vocalist Natasha Borzilova never manages to get a grip on the song's tense undercurrent. Ultimately, with the addition of the jazzy instrumental "What's for Dinner," Pages is an album that offers a little something for everybody. As such, it's hard to pin down stylistically, and tends to play things a bit too safe. But doesn't it do it beautifully?
--Alanna Nash
Tracklist:
01. Safe In My Lover's Arms - 4:12
02. Oy, Moroz-Moroz - 3:21
03. From Ankara To Izmir - 6:56
04. Long Time Comin' - 3:33
05. Just Imagine - 3:33
06. Pages - 3:33
07. You Make Lovin' Fun - 3.56
08. Cruel Man - 3:17
09. What's For Dinner? - 3:40
10. Choose Your Partner - 3:34
11. Hurts Just A Little - 3:01
Exact Audio Copy V0.99 prebeta 5 from 4. May 2009
EAC extraction logfile from 16. June 2010, 10:11
Bering Strait / Pages
Used drive : PIONEER DVD-RW DVR-215D Adapter: 2 ID: 2
Read mode : Secure
Utilize accurate stream : Yes
Defeat audio cache : Yes
Make use of C2 pointers : No
Read offset correction : 48
Overread into Lead-In and Lead-Out : No
Fill up missing offset samples with silence : Yes
Delete leading and trailing silent blocks : No
Null samples used in CRC calculations : Yes
Used interface : Native Win32 interface for Win NT & 2000
Gap handling : Appended to previous track
Used output format : User Defined Encoder
Selected bitrate : 768 kBit/s
Quality : High
Add ID3 tag : No
Command line compressor : C:Program FilesExact Audio CopyFLACFLAC.EXE
Additional command line options : -8 -V -T "ARTIST=%a" -T "TITLE=%t" -T "ALBUM=%g" -T "DATE=%y" -T "TRACKNUMBER=%n" -T "GENRE=%m" -T "COMMENT=EAC FLAC [email protected]" %s
TOC of the extracted CD
Track | Start | Length | Start sector | End sector
---------------------------------------------------------
1 | 0:00.00 | 4:13.72 | 0 | 19046
2 | 4:13.72 | 3:23.03 | 19047 | 34274
3 | 7:37.00 | 6:59.20 | 34275 | 65719
4 | 14:36.20 | 3:35.62 | 65720 | 81906
5 | 18:12.07 | 3:35.03 | 81907 | 98034
6 | 21:47.10 | 3:35.30 | 98035 | 114189
7 | 25:22.40 | 3:58.25 | 114190 | 132064
8 | 29:20.65 | 3:19.40 | 132065 | 147029
9 | 32:40.30 | 3:43.17 | 147030 | 163771
10 | 36:23.47 | 3:36.50 | 163772 | 180021
11 | 40:00.22 | 3:01.55 | 180022 | 193651
Track 1
Filename D:Pages1 - Bering Strait - Safe In My Lover's Arms.wav
Pre-gap length 0:00:02.00
Peak level 98.8 %
Track quality 100.0 %
Test CRC 3BE507A0
Copy CRC 3BE507A0
Accurately ripped (confidence 7) [3112D4A6]
Copy OK
Track 2
Filename D:Pages2 - Bering Strait - Oy, Moroz-Moroz.wav
Peak level 98.8 %
Track quality 100.0 %
Test CRC F5C86CA1
Copy CRC F5C86CA1
Accurately ripped (confidence 7) [8B26C14B]
Copy OK
Track 3
Filename D:Pages3 - Bering Strait - From Ankara to Izmir.wav
Peak level 98.8 %
Track quality 100.0 %
Test CRC 4A63E23C
Copy CRC 4A63E23C
Accurately ripped (confidence 6) [8A5EA1EA]
Copy OK
Track 4
Filename D:Pages4 - Bering Strait - Long Time Comin'.wav
Peak level 98.7 %
Track quality 99.9 %
Test CRC 6874BF3C
Copy CRC 6874BF3C
Accurately ripped (confidence 7) [1B2BD183]
Copy OK
Track 5
Filename D:Pages5 - Bering Strait - Just Imagine.wav
Pre-gap length 0:00:01.02
Peak level 98.8 %
Track quality 100.0 %
Test CRC C851A420
Copy CRC C851A420
Accurately ripped (confidence 7) [3C1E8235]
Copy OK
Track 6
Filename D:Pages6 - Bering Strait - Pages.wav
Pre-gap length 0:00:01.10
Peak level 98.8 %
Track quality 100.0 %
Test CRC CC47B92D
Copy CRC CC47B92D
Accurately ripped (confidence 7) [5F07D0A1]
Copy OK
Track 7
Filename D:Pages7 - Bering Strait - You Make Lovin' Fun.wav
Peak level 95.8 %
Track quality 100.0 %
Test CRC B00A2B76
Copy CRC B00A2B76
Accurately ripped (confidence 6) [78FBD9A4]
Copy OK
Track 8
Filename D:Pages8 - Bering Strait - Cruel Man.wav
Pre-gap length 0:00:01.35
Peak level 95.6 %
Track quality 100.0 %
Test CRC 405F9FFA
Copy CRC 405F9FFA
Accurately ripped (confidence 7) [618CCB92]
Copy OK
Track 9
Filename D:Pages9 - Bering Strait - What's For Dinner.wav
Pre-gap length 0:00:01.25
Peak level 96.7 %
Track quality 100.0 %
Test CRC AAAA9BBB
Copy CRC AAAA9BBB
Accurately ripped (confidence 6) [64B47BD4]
Copy OK
Track 10
Filename D:Pages10 - Bering Strait - Choose Your Partner.wav
Pre-gap length 0:00:01.67
Peak level 98.8 %
Track quality 100.0 %
Test CRC EBA6DF77
Copy CRC EBA6DF77
Accurately ripped (confidence 6) [5910984B]
Copy OK
Track 11
Filename D:Pages11 - Bering Strait - It Hurts Just A Little.wav
Peak level 98.8 %
Track quality 100.0 %
Test CRC 13413138
Copy CRC 13413138
Accurately ripped (confidence 7) [6A675424]
Copy OK
All tracks accurately ripped
No errors occurred
End of status report
Download Bering Strait - Pages :
Fileserve.com:
Filesonic.com:
Hotfile.com:
Pass: israbox.download
All thanks go to the original Publicist "A.Manshtein"
If you'll find that my links are dead please let me know through the Private Messages.
Please DO NOT MIRROR



Alternative download links

Part 1 Part 2 Part 1 Part 2

Related MP3 FLAC to Bering Strait - Pages
Feedback
All rights reserved.
WEBBG.com © 2000-2018