VA - Body Soul - Pure Rejuvenation (2010)
MP3 FLAC WMA APE HD

VA - Body Soul - Pure Rejuvenation (2010)

Artist: VA
Title Of Album: Body & Soul - Pure Rejuvenation
Year Of Release: 2010
Label: Allegro
Genre: Ambient, New Age, Meditation, Relax, Lounge
Quality: FLAC (Tracks,log)|MP3
Bitrate: lossless | 320kbps
Total Size: 206 mb/104 mb
TRACKLIST
1. With Hope 4:56
2. Listening Within 4:07
3. Stillpoint 3:33
4. Looking Back 4:19
5. I Closed My Eyes 4:18
6. Colors Of The Fall 4:19
7. Joyous Heart 3:36
8. Tranquil Journey 3:48
9. Sustained Serenity 3:18
10. Moonlight Dreams 6:00
Experience complete rejuvenation with the healing sounds of a mountain stream blended with these gentle piano melodies.
Exact Audio Copy V0.99 prebeta 5 from 4. May 2009
EAC extraction logfile from 18. August 2010, 14:30
Unknown Artist / Unknown Title
Used drive : hp DVD A DH16AAL Adapter: 1 ID: 0
Read mode : Secure
Utilize accurate stream : Yes
Defeat audio cache : No
Make use of C2 pointers : No
Combined read/write offset correction : 0
Overread into Lead-In and Lead-Out : No
Fill up missing offset samples with silence : Yes
Delete leading and trailing silent blocks : No
Null samples used in CRC calculations : No
Used interface : Native Win32 interface for Win NT & 2000
Gap handling : Not detected, thus appended to previous track
Used output format : User Defined Encoder
Selected bitrate : 768 kBit/s
Quality : High
Add ID3 tag : No
Command line compressor : C:Program Files (x86)Exact Audio CopyFLACFLAC.EXE
Additional command line options : -6 -V -T "ARTIST=%a" -T "TITLE=%t" -T "ALBUM=%g" -T "DATE=%y" -T "TRACKNUMBER=%n" -T "GENRE=%m" -T "COMMENT=%e" %s -o %d
TOC of the extracted CD
Track | Start | Length | Start sector | End sector
---------------------------------------------------------
1 | 0:00.00 | 4:56.59 | 0 | 22258
2 | 4:56.59 | 4:07.53 | 22259 | 40836
3 | 9:04.37 | 3:33.19 | 40837 | 56830
4 | 12:37.56 | 4:19.26 | 56831 | 76281
5 | 16:57.07 | 4:18.74 | 76282 | 95705
6 | 21:16.06 | 4:19.64 | 95706 | 115194
7 | 25:35.70 | 3:36.30 | 115195 | 131424
8 | 29:12.25 | 3:48.63 | 131425 | 148587
9 | 33:01.13 | 3:18.09 | 148588 | 163446
10 | 36:19.22 | 6:00.06 | 163447 | 190452
Track 1
Filename C:DesktopRipped Music1 Track01.wav
Peak level 91.0 %
Track quality 100.0 %
Copy CRC 5759877B
Copy OK
Track 2
Filename C:DesktopRipped Music2 Track02.wav
Peak level 89.2 %
Track quality 99.9 %
Copy CRC 0751C680
Copy OK
Track 3
Filename C:DesktopRipped Music3 Track03.wav
Peak level 80.7 %
Track quality 100.0 %
Copy CRC 519B76A3
Copy OK
Track 4
Filename C:DesktopRipped Music4 Track04.wav
Peak level 91.1 %
Track quality 99.9 %
Copy CRC EB4D0BB6
Copy OK
Track 5
Filename C:DesktopRipped Music5 Track05.wav
Peak level 90.5 %
Track quality 99.9 %
Copy CRC 2B394DEB
Copy OK
Track 6
Filename C:DesktopRipped Music6 Track06.wav
Peak level 98.8 %
Track quality 100.0 %
Copy CRC 2A71A057
Copy OK
Track 7
Filename C:DesktopRipped Music7 Track07.wav
Peak level 92.0 %
Track quality 100.0 %
Copy CRC B3136E09
Copy OK
Track 8
Filename C:DesktopRipped Music8 Track08.wav
Peak level 90.1 %
Track quality 100.0 %
Copy CRC 4194AA78
Copy OK
Track 9
Filename C:DesktopRipped Music9 Track09.wav
Peak level 92.7 %
Track quality 100.0 %
Copy CRC 696223EE
Copy OK
Track 10
Filename C:DesktopRipped Music10 Track10.wav
Peak level 95.2 %
Track quality 100.0 %
Copy CRC EE697A26
Copy OK
No errors occurred
End of status report
Hotfile.com:
Filesonic.com:
MP3:




Alternative download links

part1 part2 HotFile

Related MP3 FLAC to VA - Body Soul - Pure Rejuvenation (2010)
Feedback
All rights reserved.
WEBBG.com © 2000-2018