SixToes - Trick Of The Night (2008)
MP3 FLAC WMA APE HD

SixToes - Trick Of The Night (2008)

Artist: SixToes
Title Of Album: Trick Of The Night
Year Of Release: 2008
Label: Toe Music
Genre: Folk, World, Country
Quality: FLAC (tracks+.cue) + log
Bitrate: Lossless
Total Time: 00:49:41
Total Size: 290 Mb
Trick Of The Night is the haunting debut album by SixToes. If the album seems dark, mysterious, perhaps even a little dangerous, it's with good reason: it was written and recorded in three eerie locations: a cottage in Ely, Cambridgeshire in the grounds of an old asylum; in the old warder's quarters of Holloway prison and in a squat in London. The drums, meanwhile, were almost exclusively played on a kit found under an old church in Dalston.
Tracklist:
1. Trick Of The Night
2. Chicken
3. Four Leaved Clover
4. Same Again
5. The Rest
6. Spinster
7. Raven
8. Reggae Song
9. Single Siamese Soul
10. Curse Go Back
X Lossless Decoder version 20110228 (129.0)
XLD extraction logfile from 2011-03-08 20:22:50 +0100
SixToes / Trick of the Night
Used drive : HL-DT-ST DVDRW GS21N (revision SA18)
Ripper mode : CDParanoia III 10.2
Disable audio cache : OK for the drive with a cache less than 2750KiB
Make use of C2 pointers : NO
Read offset correction : 667
Max retry count : 100
Gap status : Analyzed, Appended
TOC of the extracted CD
Track | Start | Length | Start sector | End sector
---------------------------------------------------------
1 | 00:00:00 | 04:44:35 | 0 | 21334
2 | 04:44:35 | 03:57:43 | 21335 | 39152
3 | 08:42:03 | 05:16:02 | 39153 | 62854
4 | 13:58:05 | 05:06:48 | 62855 | 85852
5 | 19:04:53 | 04:24:55 | 85853 | 105707
6 | 23:29:33 | 05:02:45 | 105708 | 128402
7 | 28:32:03 | 05:30:32 | 128403 | 153184
8 | 34:02:35 | 04:20:68 | 153185 | 172752
9 | 38:23:28 | 05:36:20 | 172753 | 197972
10 | 43:59:48 | 05:41:00 | 197973 | 223547
AccurateRip Summary
Disc not found in AccurateRip DB.
All Tracks
Album gain : -7.10 dB
Peak : 1.000000
Statistics
Read error : 0
Skipped (treated as error) : 0
Edge jitter error (maybe fixed) : 0
Atom jitter error (maybe fixed) : 0
Drift error (maybe fixed) : 0
Dropped bytes error (maybe fixed) : 0
Duplicated bytes error (maybe fixed) : 0
Track 01
Filename : /Users/mat/tmp/SixToes - 2008 - Trick of the Night (FLAC)/01 - Trick of the Night.flac
Pre-gap length : 00:02:00
Track gain : -7.02 dB
Peak : 1.000000
CRC32 hash (test run) : 6621ECEA
CRC32 hash : 6621ECEA
CRC32 hash (skip zero) : 97B0E32F
AccurateRip signature : A5951BD5
->Track not present in AccurateRip database.
Statistics
Read error : 0
Skipped (treated as error) : 0
Edge jitter error (maybe fixed) : 0
Atom jitter error (maybe fixed) : 0
Drift error (maybe fixed) : 0
Dropped bytes error (maybe fixed) : 0
Duplicated bytes error (maybe fixed) : 0
Inconsistency in error sectors : 0
Track 02
Filename : /Users/mat/tmp/SixToes - 2008 - Trick of the Night (FLAC)/02 - Chicken.flac
Track gain : -8.16 dB
Peak : 1.000000
CRC32 hash (test run) : AF66C15E
CRC32 hash : AF66C15E
CRC32 hash (skip zero) : 75655671
AccurateRip signature : E521713E
->Track not present in AccurateRip database.
Statistics
Read error : 0
Skipped (treated as error) : 0
Edge jitter error (maybe fixed) : 0
Atom jitter error (maybe fixed) : 0
Drift error (maybe fixed) : 0
Dropped bytes error (maybe fixed) : 0
Duplicated bytes error (maybe fixed) : 0
Inconsistency in error sectors : 0
Track 03
Filename : /Users/mat/tmp/SixToes - 2008 - Trick of the Night (FLAC)/03 - Four Leaved Clover.flac
Track gain : -6.87 dB
Peak : 1.000000
CRC32 hash (test run) : 9EEBEA0A
CRC32 hash : 9EEBEA0A
CRC32 hash (skip zero) : 8AEB0EDF
AccurateRip signature : 61665D99
->Track not present in AccurateRip database.
Statistics
Read error : 0
Skipped (treated as error) : 0
Edge jitter error (maybe fixed) : 0
Atom jitter error (maybe fixed) : 0
Drift error (maybe fixed) : 0
Dropped bytes error (maybe fixed) : 0
Duplicated bytes error (maybe fixed) : 0
Inconsistency in error sectors : 0
Track 04
Filename : /Users/mat/tmp/SixToes - 2008 - Trick of the Night (FLAC)/04 - Same Again.flac
Track gain : -7.58 dB
Peak : 1.000000
CRC32 hash (test run) : A1F19B6D
CRC32 hash : A1F19B6D
CRC32 hash (skip zero) : E2E09BD4
AccurateRip signature : 03303074
->Track not present in AccurateRip database.
Statistics
Read error : 0
Skipped (treated as error) : 0
Edge jitter error (maybe fixed) : 0
Atom jitter error (maybe fixed) : 0
Drift error (maybe fixed) : 0
Dropped bytes error (maybe fixed) : 0
Duplicated bytes error (maybe fixed) : 0
Inconsistency in error sectors : 0
Track 05
Filename : /Users/mat/tmp/SixToes - 2008 - Trick of the Night (FLAC)/05 - The Rest.flac
Pre-gap length : 00:03:18
Track gain : -6.23 dB
Peak : 1.000000
CRC32 hash (test run) : 732417C5
CRC32 hash : 732417C5
CRC32 hash (skip zero) : AAF32187
AccurateRip signature : 8898A6BA
->Track not present in AccurateRip database.
Statistics
Read error : 0
Skipped (treated as error) : 0
Edge jitter error (maybe fixed) : 0
Atom jitter error (maybe fixed) : 0
Drift error (maybe fixed) : 0
Dropped bytes error (maybe fixed) : 0
Duplicated bytes error (maybe fixed) : 0
Inconsistency in error sectors : 0
Track 06
Filename : /Users/mat/tmp/SixToes - 2008 - Trick of the Night (FLAC)/06 - A Jaundiced Eye.flac
Pre-gap length : 00:01:53
Track gain : -6.85 dB
Peak : 1.000000
CRC32 hash (test run) : 5B6F20CD
CRC32 hash : 5B6F20CD
CRC32 hash (skip zero) : 08B40166
AccurateRip signature : 8F7192AA
->Track not present in AccurateRip database.
Statistics
Read error : 0
Skipped (treated as error) : 0
Edge jitter error (maybe fixed) : 0
Atom jitter error (maybe fixed) : 0
Drift error (maybe fixed) : 0
Dropped bytes error (maybe fixed) : 0
Duplicated bytes error (maybe fixed) : 0
Inconsistency in error sectors : 0
Track 07
Filename : /Users/mat/tmp/SixToes - 2008 - Trick of the Night (FLAC)/07 - Raven.flac
Pre-gap length : 00:02:10
Track gain : -6.86 dB
Peak : 1.000000
CRC32 hash (test run) : D745B66E
CRC32 hash : D745B66E
CRC32 hash (skip zero) : B62A5334
AccurateRip signature : 53208F0F
->Track not present in AccurateRip database.
Statistics
Read error : 0
Skipped (treated as error) : 0
Edge jitter error (maybe fixed) : 0
Atom jitter error (maybe fixed) : 0
Drift error (maybe fixed) : 0
Dropped bytes error (maybe fixed) : 0
Duplicated bytes error (maybe fixed) : 0
Inconsistency in error sectors : 0
Track 08
Filename : /Users/mat/tmp/SixToes - 2008 - Trick of the Night (FLAC)/08 - The Reggae Song.flac
Pre-gap length : 00:02:55
Track gain : -7.27 dB
Peak : 1.000000
CRC32 hash (test run) : 1C94B812
CRC32 hash : 1C94B812
CRC32 hash (skip zero) : C06F6F6A
AccurateRip signature : AE818012
->Track not present in AccurateRip database.
Statistics
Read error : 0
Skipped (treated as error) : 0
Edge jitter error (maybe fixed) : 0
Atom jitter error (maybe fixed) : 0
Drift error (maybe fixed) : 0
Dropped bytes error (maybe fixed) : 0
Duplicated bytes error (maybe fixed) : 0
Inconsistency in error sectors : 0
Track 09
Filename : /Users/mat/tmp/SixToes - 2008 - Trick of the Night (FLAC)/09 - Single Siamese Soul.flac
Pre-gap length : 00:04:28
Track gain : -3.73 dB
Peak : 1.000000
CRC32 hash (test run) : 31007D1E
CRC32 hash : 31007D1E
CRC32 hash (skip zero) : B3361A38
AccurateRip signature : FDCAE946
->Track not present in AccurateRip database.
Statistics
Read error : 0
Skipped (treated as error) : 0
Edge jitter error (maybe fixed) : 0
Atom jitter error (maybe fixed) : 0
Drift error (maybe fixed) : 0
Dropped bytes error (maybe fixed) : 0
Duplicated bytes error (maybe fixed) : 0
Inconsistency in error sectors : 0
Track 10
Filename : /Users/mat/tmp/SixToes - 2008 - Trick of the Night (FLAC)/10 - Curse Go Back!.flac
Pre-gap length : 00:13:40
Track gain : -7.55 dB
Peak : 1.000000
CRC32 hash (test run) : 93266D32
CRC32 hash : 93266D32
CRC32 hash (skip zero) : C9AC1CAC
AccurateRip signature : C8423BDC
->Track not present in AccurateRip database.
Statistics
Read error : 0
Skipped (treated as error) : 0
Edge jitter error (maybe fixed) : 0
Atom jitter error (maybe fixed) : 0
Drift error (maybe fixed) : 0
Dropped bytes error (maybe fixed) : 0
Duplicated bytes error (maybe fixed) : 0
Inconsistency in error sectors : 0
No errors occurred
End of status report
FileSonic
Wupload



Alternative download links

DOWNLOAD

Related MP3 FLAC to SixToes - Trick Of The Night (2008)
Feedback
All rights reserved.
WEBBG.com © 2000-2018