Geri Allen – Timeless Portraits and Dreams (2006) Flac
MP3 FLAC WMA APE HD

Geri Allen – Timeless Portraits and Dreams (2006) Flac

  • Genre: Music, Jazz, FLAC / APE
  • Formats: MP3 FLAC WMA HD APE
  • Album Size: 1539 mb.
  • Archive: ZIP RAR
Artist: Geri Allen
Title Of Album: Timeless Portraits and Dreams
Year Of Release: Aug 22, 2006
Label: Telarc Distribution
Genre: Jazz, Post-Bop, Piano Jazz
Quality: FLAC (Img,cue,log,scans)
Bitrate: lossless
Total Time: 58:28 min
Total Size: 311 mb (+5%rec)
Tracklist
01. Oh Freedom
02. Melchezedik
03. Portraits and Dreams
04. Well Done
05. La Strada
06. I Have a Dream
07. Nearly
08. In Real Time
09. Embraceable You
10. Ah-Leu-Cha
11. Just for a Thrill
12. Our Lady (For Billie Holiday)
13. Timeless Portraits and Dreams
14. Portraits and Dreams (Reprise)
Personel:
Geri Allen (piano,vocals);
George Shirley (vocals, tenor);
Carmen Lundy (vocals);
Donald Walden (tenor saxophone);
Wallace Roney (trumpet);
Ron Carter (upright bass);
Jimmy Cobb (drums).
Geri Allen's earlier 2006 album, Zodiac Suite: Revisited, a fine effort recorded under the banner of the Mary Lou Williams Collective, celebrated the legendary pianist by rescuing one of her major works from obscurity. On Timeless Portraits and Dreams Allen widens her scope, as she is wont to do, to bridge jazz, spirituals, and classical music. She performs lyrical solo pieces and jazz classics, demonstrates the art of the trio with Miles Davis alumni Ron Carter and Jimmy Cobb, backs the exceptional jazz singer Carmen Lundy with a vocal chorus, and features classical tenor George Shirley with the chorus on "I Have a Dream," written by Williams after Martin Luther King's assassination. Most projects like this have a tendency to veer off in different directions, but "Timeless Portraits and Dreams" hangs together beautifully, rooted in Allen's humanistic aims as a writer and musician and her comfort in varied settings. The seamlessly programmed CD also features her husband, trumpeter Wallace Roney, on an upbeat tribute to Billie Holiday, "Our Lady." On a single-song bonus disc, Shirley performs the song regarded as the black national anthem, "Lift Every Voice and Sing." --Lloyd Sachs
Exact Audio Copy V0.99 prebeta 4 from 23. January 2008
EAC extraction logfile from 31. December 2009, 14:07
Geri Allen / Timeless Portraits And Dreams
Used drive : ASUS DRW-1814BL Adapter: 0 ID: 0
Read mode : Secure
Utilize accurate stream : Yes
Defeat audio cache : Yes
Make use of C2 pointers : No
Read offset correction : 6
Overread into Lead-In and Lead-Out : No
Fill up missing offset samples with silence : Yes
Delete leading and trailing silent blocks : No
Null samples used in CRC calculations : Yes
Used interface : Native Win32 interface for Win NT & 2000
Used output format : Internal WAV Routines
Sample format : 44.100 Hz; 16 Bit; Stereo
TOC of the extracted CD
Track | Start | Length | Start sector | End sector
---------------------------------------------------------
1 | 0:00.00 | 1:52.31 | 0 | 8430
2 | 1:52.31 | 7:06.71 | 8431 | 40451
3 | 8:59.27 | 2:27.37 | 40452 | 51513
4 | 11:26.64 | 5:22.23 | 51514 | 75686
5 | 16:49.12 | 4:21.35 | 75687 | 95296
6 | 21:10.47 | 2:23.62 | 95297 | 106083
7 | 23:34.34 | 4:27.64 | 106084 | 126172
8 | 28:02.23 | 5:40.00 | 126173 | 151672
9 | 33:42.23 | 2:48.20 | 151673 | 164292
10 | 36:30.43 | 4:51.50 | 164293 | 186167
11 | 41:22.18 | 4:21.02 | 186168 | 205744
12 | 45:43.20 | 5:59.04 | 205745 | 232673
13 | 51:42.24 | 5:05.29 | 232674 | 255577
14 | 56:47.53 | 1:38.56 | 255578 | 262983
Range status and errors
Selected range
Filename H:jazz upload FolderGeri Allen - Timeless Portraits and DreamsGeri Allen - Timeless Portraits And Dreams.wav
Peak level 99.5 %
Range quality 100.0 %
Test CRC C0E0441E
Copy CRC C0E0441E
Copy OK
No errors occurred
End of status report
Lossless





Alternative download links

fileserve.com-1 fileserve.com-2 hotfile.com-1 hotfile.com-2 Download MP3 320kbps

Related MP3 FLAC to Geri Allen – Timeless Portraits and Dreams (2006) Flac
Feedback
All rights reserved.
WEBBG.com © 2000-2018