Miki NDoye - Tuki (2006)
MP3 FLAC WMA APE HD

Miki NDoye - Tuki (2006)

  • Genre: Music, Jazz
  • Formats: MP3 FLAC WMA HD APE
  • Album Size: 1536 mb.
  • Archive: ZIP RAR

Free download links


Miki NDoye - Tuki (2006) .zip
MP3 version ZIP archive

1536 downloads at 30 mb/s

Miki NDoye - Tuki (2006) .zip
FLAC/APE version ZIP archive

943 downloads at 22 mb/s
Artist: Miki N'Doye
Title Of Album: Tuki
Year Of Release: 2006
Label: ECM Records
Genre: Folk, World, Country, Jazz
Quality: Flac(Image+Cue+Log+COvers)/mp3
Bitrate: Lossless/320kbps
Total Time: 1:02:37min
Total Size: 315Mb/154Mb
Tracklist:
1 Intro 3:24
2 Jahlena 3:24
3 Loharbye 3:24
4 Kokonum 3:24
5 Rubato 3:24
6 Dunya 3:24
7 Tuki 3:24
8 Kalimba 6 3:24
9 Tonya 3:24
10 Osa Yambe 3:24
11 Box 3:24
12 Me 3:24
13 Ending 3:24
Miki N´Doye kalimba, tamma, m’balax, bongo, vocals
Jon Balke keyboards, prepared piano
Per Jørgensen trumpet, vocals
Helge Andreas Norbakken percussion
Aulay Sosseh vocals
Lie Jallow vocals
Exact Audio Copy V0.99 prebeta 4 from 23. January 2008
EAC extraction logfile from 21. June 2008, 21:48
Miki N'Doye / Tuki
Used drive : TSSTcorpCD/DVDW SH-S182M Adapter: 2 ID: 1
Read mode : Secure
Utilize accurate stream : Yes
Defeat audio cache : Yes
Make use of C2 pointers : No
Read offset correction : 6
Overread into Lead-In and Lead-Out : No
Fill up missing offset samples with silence : Yes
Delete leading and trailing silent blocks : No
Null samples used in CRC calculations : No
Used interface : Installed external ASPI interface
Used output format : User Defined Encoder
Selected bitrate : 768 kBit/s
Quality : High
Add ID3 tag : No
Command line compressor : C:Program FilesExact Audio CopyFLACFLAC.EXE
Additional command line options : -6 -V -T "ARTIST=%a" -T "TITLE=%t" -T "ALBUM=%g" -T "DATE=%y" -T "TRACKNUMBER=%n" -T "GENRE=%m" -T "COMMENT=%e" %s -o %d
TOC of the extracted CD
Track | Start | Length | Start sector | End sector
---------------------------------------------------------
1 | 0:00.00 | 3:45.06 | 0 | 16880
2 | 3:45.06 | 4:20.56 | 16881 | 36436
3 | 8:05.62 | 6:15.72 | 36437 | 64633
4 | 14:21.59 | 8:31.00 | 64634 | 102958
5 | 22:52.59 | 6:23.12 | 102959 | 131695
6 | 29:15.71 | 6:06.51 | 131696 | 159196
7 | 35:22.47 | 3:27.52 | 159197 | 174773
8 | 38:50.24 | 3:41.21 | 174774 | 191369
9 | 42:31.45 | 4:02.13 | 191370 | 209532
10 | 46:33.58 | 4:11.49 | 209533 | 228406
11 | 50:45.32 | 4:29.19 | 228407 | 248600
12 | 55:14.51 | 4:11.12 | 248601 | 267437
13 | 59:25.63 | 3:11.26 | 267438 | 281788
Range status and errors
Selected range
Filename F:zMiki N'Doye - Tuki.wav
Peak level 100.0 %
Range quality 100.0 %
Copy CRC 8FC458A0
Copy OK
No errors occurred

AccurateRip summary

Track 1 accurately ripped (confidence 1) [9047725B]
Track 2 accurately ripped (confidence 1) [5B8776E4]
Track 3 accurately ripped (confidence 1) [F61D937D]
Track 4 accurately ripped (confidence 1) [34B91126]
Track 5 accurately ripped (confidence 1) [DBD1249A]
Track 6 accurately ripped (confidence 1) [7EDB124F]
Track 7 accurately ripped (confidence 1) [4E46EA13]
Track 8 accurately ripped (confidence 1) [16067953]
Track 9 accurately ripped (confidence 1) [9EE2DC52]
Track 10 accurately ripped (confidence 1) [E361DF98]
Track 11 accurately ripped (confidence 1) [D5213BB9]
Track 12 accurately ripped (confidence 1) [AB359B7B]
Track 13 cannot be verified as accurate (confidence 1) [796D8D79], AccurateRip returned [F90E2C46]

12 track(s) accurately ripped
1 track(s) could not be verified as accurate
Some tracks could not be verified as accurate
End of status report
Not the most obvious of bedfellows, but 'Tuki' sees Oslo based Gambian musician Miki N'Doye mix the two worlds interestingly, if occasionally rather awkwardly. The record for the most part showcases N'Doye's engaging Kalimba playing, but he is also accompanied by some rather lovely keyboard and muted trumpet, which gives the record at times a feeling quite similar to that brought to life on Arve Henriksen's classic 'Chiaroscuro' album on Rune Grammofon. For the most part this collision of culture; the Norwegian players' experimental drones and bleats on one side and N'Doye's African chants and hits on the other, works, but occasionally the cd floats dangerously close to the line - and I'm sure you know what I'm talking about. I must say though it's incredibly hard to make 'world music' while retaining credibility and it's important to praise N'Doye for trying something different and experimenting quite marvellously.
Lossless

MP3




Alternative download links

hotfile.com-1 hotfile.com-2 HOTFILE

Related MP3 FLAC to Miki NDoye - Tuki (2006)
Feedback
All rights reserved.
WEBBG.com © 2000-2018