Thalia - Thalia
MP3 FLAC WMA APE HD

Thalia - Thalia

Free download links


Thalia - Thalia .zip
MP3 version ZIP archive

1719 downloads at 30 mb/s

Thalia - Thalia .zip
FLAC/APE version ZIP archive

943 downloads at 22 mb/s
Artist: Thalia
Title Of Album: Thalia - Thalia
Year Of Release: 27 Sep. 2005
Label: EMI
Genre: Pop
Quality: FLAC
Bitrate: lossless-image +cue +log +SCANS
Total Size: 565,62 Mb
Thalia's self-titled album is hot. A lot of people are complaining that this is too different for Thalia or whatever but I think this is her best yet. It's got a lot of well crafted pop songs on here. Up-beat gems like "tu y yo" and awesome ballads like "no me ensenaste" and "y seguir". Thalia sings with passion on each and every track. I really enjoyed this Cd fully. This is one of those albums that you can play from beginning to end, enjoying each track. Thalia also sings a few english tracks. "The Mexican 2002", "closer to you" and a remake of "you spin me 'round". "Closer to you" has a very nice melody but the lyrics are a joke. Still enjoyable though. THALIA is an excellent mix of pop/rock, dance, and latin sounds.
Tracklist:
1. Tu Y Yo 3:43
2. Asi Es El Destino
3. En La Fiesta Mando Yo
4. No Me Ensenaste
5. Y Seguir
6. A Quien Le Importa
7. Vueltas En El Aire
8. Heridas En El Alma
9. La Loca
10. Tu Y Yo (Cumbia Remix)
11. The Mexican (Spanish Version con Marc Anthony)
12. The Mexican (English Version)
13. Closer To You
14. You Spin Me Round (Like A Record)
15. No Me Ensenaste (Salsa Remix)
16. Tu Y Yo (Ballad version)
17. The Mexican (Dance Remix)
18. No Me Ensenaste (Estefano remix)
Exact Audio Copy V0.99 prebeta 5 from 4. May 2009
Отчёт EAC об извлечении, выполненном 24. июля 2010, 18:38
Thalia / Thalia 2002
Дисковод: PIONEER DVD-RW DVR-112D Adapter: 1 ID: 0
Режим чтения : Достоверность
Использование точного потока : Да
Отключение кэша аудио : Да
Использование указателей C2 : Нет
Коррекция смещения при чтении : 48
Способность читать области Lead-in и Lead-out : Нет
Заполнение пропущенных сэмплов тишиной : Да
Удаление блоков с тишиной в начале и конце : Нет
При вычислениях CRC использовались нулевые сэмплы : Да
Интерфейс : Установленный внешний ASPI-интерфейс
Выходной формат : Внутренние WAV-операции
Формат сэмплов : 44.100 Гц; 16 бит; стерео
TOC извлечённого CD
Трек | Старт | Длительность | Начальный сектор | Конечный сектор
---------------------------------------------------------------------
1 | 0:00.00 | 3:43.19 | 0 | 16743
2 | 3:43.19 | 4:03.62 | 16744 | 35030
3 | 7:47.06 | 4:18.16 | 35031 | 54396
4 | 12:05.22 | 4:26.24 | 54397 | 74370
5 | 16:31.46 | 4:03.61 | 74371 | 92656
6 | 20:35.32 | 3:44.64 | 92657 | 109520
7 | 24:20.21 | 4:58.36 | 109521 | 131906
8 | 29:18.57 | 3:45.47 | 131907 | 148828
9 | 33:04.29 | 3:50.19 | 148829 | 166097
10 | 36:54.48 | 3:51.42 | 166098 | 183464
11 | 40:46.15 | 3:52.14 | 183465 | 200878
12 | 44:38.29 | 4:19.51 | 200879 | 220354
13 | 48:58.05 | 3:57.33 | 220355 | 238162
14 | 52:55.38 | 4:30.45 | 238163 | 258457
15 | 57:26.08 | 4:31.60 | 258458 | 278842
16 | 61:57.68 | 3:30.05 | 278843 | 294597
17 | 65:27.73 | 3:27.08 | 294598 | 310130
18 | 68:55.06 | 4:19.00 | 310131 | 329555
Характеристики диапазона извлечения и сообщения об ошибках
Выбранный диапазон
Имя файла C:Documents and SettingsАдминистраторРабочий столThaliaThalia - Thalia 2002.wav
Пиковый уровень 99.8 %
Качество диапазона 99.7 %
CRC теста F312DD0F
CRC копии F312DD0F
Копирование... OK
Ошибок не произошло
Download Thalia - Thalia :
Turbobit.net:
Fileserve.com:
Hotfile.com
Pass: israbox.download
Thanks to the original Publicist "shar-pee"
Please DO NOT MIRROR



Alternative download links

turbobit.net fileserve.com Part 1 fileserve.com Part 2 fileserve.com Part 3 hotfile.com Part 1 hotfile.com Part 2 hotfile.com Part 3

Related MP3 FLAC to Thalia - Thalia
Feedback
All rights reserved.
WEBBG.com © 2000-2018