Hoodoo Gurus - Stoneage Romeos (1984)
MP3 FLAC WMA APE HD

Hoodoo Gurus - Stoneage Romeos (1984)

Artist: Hoodoo Gurus
Title Of Album: Stoneage Romeos
Year Of Release: 1984
Label: Big Time
Genre: Garage Rock
Quality: FLAC (image+.cue) + log
Bitrate: Lossless
Total Time: 37:40
Total Size: 251 Mb
Hoodoo Gurus (referred to as the Gurus by fans) are an Australian rock band, formed in Sydney in 1981, by the mainstay Dave Faulkner (songwriter, lead singer and guitarist) and later joined by Richard Grossman (bass), Mark Kingsmill (drums), and Brad Shepherd (guitar, vocals, harmonica). Their popularity peaked in the mid to late 1980s with albums Mars Needs Guitars!, Blow Your Cool! and Magnum Cum Louder.
Tracklist:
01. (Lets All) Turn On
02. I Want You Back
03. Arthur
04. Death Ship
05. Dig It Up
06. My Girl
07. Zanzibar
08. Leilani
09. Tojo
10. In the Echo Chamber
11. I Was a Kamikaze Pilot
Exact Audio Copy V0.99 prebeta 5 from 4. May 2009
EAC extraction logfile from 8. June 2011, 18:53
Hoodoo Gurus / Stoneage Romeos
Used drive : _NEC DVD_RW ND-3550A Adapter: 1 ID: 0
Read mode : Secure
Utilize accurate stream : Yes
Defeat audio cache : Yes
Make use of C2 pointers : No
Read offset correction : 48
Overread into Lead-In and Lead-Out : No
Fill up missing offset samples with silence : Yes
Delete leading and trailing silent blocks : No
Null samples used in CRC calculations : Yes
Used interface : Native Win32 interface for Win NT & 2000
Used output format : User Defined Encoder
Selected bitrate : 1024 kBit/s
Quality : High
Add ID3 tag : No
Command line compressor : C:Program FilesExact Audio CopyFlacflac.exe
Additional command line options : -8 -V %s
TOC of the extracted CD
Track | Start | Length | Start sector | End sector
---------------------------------------------------------
1 | 0:00.00 | 3:06.10 | 0 | 13959
2 | 3:06.10 | 3:12.13 | 13960 | 28372
3 | 6:18.23 | 3:10.27 | 28373 | 42649
4 | 9:28.50 | 2:37.27 | 42650 | 54451
5 | 12:06.02 | 3:35.23 | 54452 | 70599
6 | 15:41.25 | 2:39.50 | 70600 | 82574
7 | 18:21.00 | 3:25.30 | 82575 | 97979
8 | 21:46.30 | 5:36.58 | 97980 | 123237
9 | 27:23.13 | 3:22.67 | 123238 | 138454
10 | 30:46.05 | 3:44.18 | 138455 | 155272
11 | 34:30.23 | 3:10.00 | 155273 | 169522
Range status and errors
Selected range
Filename D:1Hoodoo Gurus - Stoneage Romeos Hoodoo Gurus - Stoneage Romeos.wav
Peak level 97.7 %
Range quality 100.0 %
Test CRC 70129555
Copy CRC 70129555
Copy OK
No errors occurred
End of status report
FileSonic
Wupload



Alternative download links

DOWNLOAD

Related MP3 FLAC to Hoodoo Gurus - Stoneage Romeos (1984)
Feedback
All rights reserved.
WEBBG.com © 2000-2018