Terra del Sol - Selection One (2001)
MP3 FLAC WMA APE HD

Terra del Sol - Selection One (2001)

Artist: Terra del Sol
Title Of Album: Selection One
Year Of Release: 2001
Label: TME
Genre: Acid Jazz, Ambient, Downtempo
Quality: APE (Img,cue,log) | MP3
Bitrate: lossless | 320kbps
Total Time: 01:02:53 min
Total Size: 357 mb/151 mb (+5% rec.)
Tracklist
01. Miles and Miles
02. Nova Collections
03. Deja vue
04. Terra del sol
05. Le soleil levant
06. Delta 5 am
07. Clyde's Cafe
08. Je danse
09. Nova Beach
10. Sundowner
11. Taxi Driver
12. Guru Ganesh
13. Miles and Miles (Summerchill Mix)
14. Je Danse (Nova Step Mix)
Exact Audio Copy V0.99 prebeta 3 from 28. July 2007
Отчёт EAC об извлечении, выполненном 1. августа 2010, 20:24
Terra del Sol / -
Дисковод: Optiarc DVD RW AD-7560A Adapter: 0 ID: 0
Режим чтения : Достоверность
Использование точного потока : Да
Отключение кэша аудио : Да
Использование указателей C2 : Нет
Коррекция смещения при чтении : 6
Способность читать области Lead-in и Lead-out : Нет
Заполнение пропущенных сэмплов тишиной : Да
Удаление блоков с тишиной в начале и конце : Нет
При вычислениях CRC использовались нулевые сэмплы : Да
Интерфейс : Встроенный Win32-интерфейс для Win NT/2000
Выходной формат : Внутренние WAV-операции
Формат сэмплов : 44.100 Гц; 16 бит; стерео
TOC извлечённого CD
Трек | Старт | Длительность | Начальный сектор | Конечный сектор
---------------------------------------------------------------------
1 | 0:00.00 | 4:17.25 | 0 | 19299
2 | 4:17.25 | 4:27.67 | 19300 | 39391
3 | 8:45.17 | 5:14.40 | 39392 | 62981
4 | 13:59.57 | 6:01.18 | 62982 | 90074
5 | 20:01.00 | 2:12.70 | 90075 | 100044
6 | 22:13.70 | 4:59.50 | 100045 | 122519
7 | 27:13.45 | 4:35.05 | 122520 | 143149
8 | 31:48.50 | 4:26.02 | 143150 | 163101
9 | 36:14.52 | 3:56.55 | 163102 | 180856
10 | 40:11.32 | 5:00.50 | 180857 | 203406
11 | 45:12.07 | 4:11.68 | 203407 | 222299
12 | 49:24.00 | 4:32.57 | 222300 | 242756
13 | 53:56.57 | 4:45.65 | 242757 | 264196
14 | 58:42.47 | 4:10.48 | 264197 | 282994
Характеристики диапазона извлечения и сообщения об ошибках
Выбранный диапазон
Имя файла C:UsersАлександрDesktopterraTerra del Sol.wav
Пиковый уровень 100.0 %
Качество диапазона 100.0 %
CRC копии 5991F907
Копирование... OK
Ошибок не произошло

AccurateRip: сводка

Трек 1 нет в базе данных
Трек 2 нет в базе данных
Трек 3 нет в базе данных
Трек 4 нет в базе данных
Трек 5 нет в базе данных
Трек 6 нет в базе данных
Трек 7 нет в базе данных
Трек 8 нет в базе данных
Трек 9 нет в базе данных
Трек 10 нет в базе данных
Трек 11 нет в базе данных
Трек 12 нет в базе данных
Трек 13 нет в базе данных
Трек 14 нет в базе данных

Ни одного трека нет в базе AccurateRip
Конец отчёта
Released by TME under exclusive license from Highball Music GmbH
Produced and mixed by Terra del Sol for Matiz Music.
Co-production by c. word on tracs 3/5/6 at Seed Studios UK.
Original sound recording by Alberto HoussJeff Wycombe at Matiz Studios, Germany and Tantajo Rock, France.
All songs published by Warner Chappell / Matiz Music.
Lossless

MP3




Alternative download links

hotfile.com-1 hotfile.com-2 uploaded.to-1 uploaded.to-2 HOTFILE UPLOADED

Related MP3 FLAC to Terra del Sol - Selection One (2001)
Feedback
All rights reserved.
WEBBG.com © 2000-2018