Robert Palmer - Classic Robert Palmer Universal Masters Collection (1999)
MP3 FLAC WMA APE HD

Robert Palmer - Classic Robert Palmer Universal Masters Collection (1999)

Artist: Robert Palmer
Title Of Album: Classic Robert Palmer [Universal Masters Collection]
Year Of Release: 1999
Label: Island 542 267-2
Genre: Rock, Pop
Quality: Lossless | MP3
Bitrate: FLAC tracks + cue | 320 kbps
Total Time: 01:14:00
Total Size: 506 / 176 MB (+3%)
The British singer-songwriter Robert Palmer got his big break as the original vocalist for pop-supergroup Power Station. In late 1985 Palmer released his hugely successful song "Addicted to Love". The video for "Addicted to Love" - with Palmer singing in the foreground and five Nagle-esque models dancing and pretending to play instruments in the background - caught the attention of the world and became and iconic symbol of 80s video art. This CD is an excellent overview of Robert Palmer's longer career. (Another title for this CD is "Robert Palmer - Millennium Edition").
Tracklist
1. Addicted To Love [06:00]
2. Pressure Drop [05:19]
3. Sneakin' Sally Thru The Alley [04:47]
4. Bad Case Of Loving You (Doctor Doctor) [03:12]
5. Johnny & Mary [03:55]
6. From A Whisper To A Scream [03:34]
7. Every Kinda People [03:45]
8. Give Me An Inch [02:58]
9. Man Smart Woman Smarter [02:31]
10. Spanish Moon [05:51]
11. Best Of Both Worlds [03:51]
12. Looking For Clues [04:53]
13. You Are In My System [04:27]
14. Want You More [03:17]
15. Riptide [02:25]
16. Discipline Of Love [06:12]
17. Woke Up Laughing [03:36]
18. What's It Take [03:27]
Total time 01:14:00
EAC extraction logfile from 15. August 2007, 20:55 for CD
Robert Palmer / Millennium Edition
Used drive : HL-DT-STDVDRRW GSA-H30L Adapter: 0 ID: 1
Read mode : Secure with NO C2, accurate stream, disable cache
Read offset correction : 102
Overread into Lead-In and Lead-Out : Yes
Used output format : C:flac-1.2.0-winbinflac.exe (User Defined Encoder)
320 kBit/s
Additional command line options : -6 -V -T "artist=%a" -T "title=%t" -T "album=%g" -T "date=%y" -T "tracknumber=%n" -T "genre=%m" -T comment="%e" -T "comment=EAC (Secure Mode)" %s
Other options :
Fill up missing offset samples with silence : Yes
Delete leading and trailing silent blocks : No
Installed external ASPI interface
Track 1
Filename C:My Music Box.;)-Addicted To Love-Robert Palmer-1999.wav
Pre-gap length 0:00:02.00
Peak level 98.8 %
Track quality 100.0 %
Test CRC 5DFB1402
Copy CRC 5DFB1402
Copy OK
Track 2
Filename C:My Music Box.;)-Pressure Drop-Robert Palmer-1999.wav
Pre-gap length 0:00:00.69
Peak level 94.8 %
Track quality 100.0 %
Test CRC 048AC9AC
Copy CRC 048AC9AC
Copy OK
Track 3
Filename C:My Music Box.;)-Sneakin' Sally Thru The Alley-Robert Palmer-1999.wav
Pre-gap length 0:00:00.67
Peak level 78.8 %
Track quality 100.0 %
Test CRC DB1D34BC
Copy CRC DB1D34BC
Copy OK
Track 4
Filename C:My Music Box.;)-Bad Case Of Loving You (Doctor Doctor)-Robert Palmer-1999.wav
Pre-gap length 0:00:00.67
Peak level 96.1 %
Track quality 99.9 %
Test CRC 2C5CACB7
Copy CRC 2C5CACB7
Copy OK
Track 5
Filename C:My Music Box.;)-Johnny & Mary-Robert Palmer-1999.wav
Pre-gap length 0:00:00.68
Peak level 98.8 %
Track quality 99.9 %
Test CRC 0C7FE87E
Copy CRC 0C7FE87E
Copy OK
Track 6
Filename C:My Music Box.;)-From A Whisper To A Scream-Robert Palmer-1999.wav
Pre-gap length 0:00:00.67
Peak level 90.7 %
Track quality 100.0 %
Test CRC 084113E1
Copy CRC 084113E1
Copy OK
Track 7
Filename C:My Music Box.;)-Every Kinda People-Robert Palmer-1999.wav
Pre-gap length 0:00:00.68
Peak level 82.4 %
Track quality 100.0 %
Test CRC EA5F72AB
Copy CRC EA5F72AB
Copy OK
Track 8
Filename C:My Music Box.;)-Give Me An Inch-Robert Palmer-1999.wav
Pre-gap length 0:00:00.68
Peak level 78.3 %
Track quality 99.9 %
Test CRC 754B1067
Copy CRC 754B1067
Copy OK
Track 9
Filename C:My Music Box.;)-Man Smart Woman Smarter-Robert Palmer-1999.wav
Pre-gap length 0:00:00.67
Peak level 93.4 %
Track quality 100.0 %
Test CRC BD719D5E
Copy CRC BD719D5E
Copy OK
Track 10
Filename C:My Music Box.;)-Spanish Moon-Robert Palmer-1999.wav
Pre-gap length 0:00:00.67
Peak level 98.8 %
Track quality 99.9 %
Test CRC 73887292
Copy CRC 73887292
Copy OK
Track 11
Filename C:My Music Box.;)-Best Of Both Worlds-Robert Palmer-1999.wav
Pre-gap length 0:00:00.68
Peak level 98.8 %
Track quality 100.0 %
Test CRC A1BC9A90
Copy CRC A1BC9A90
Copy OK
Track 12
Filename C:My Music Box.;)-Looking For Clues-Robert Palmer-1999.wav
Pre-gap length 0:00:00.68
Peak level 94.9 %
Track quality 99.9 %
Test CRC F346988B
Copy CRC F346988B
Copy OK
Track 13
Filename C:My Music Box.;)-You Are In My System-Robert Palmer-1999.wav
Pre-gap length 0:00:00.70
Peak level 87.2 %
Track quality 100.0 %
Test CRC 30CC7AD9
Copy CRC 30CC7AD9
Copy OK
Track 14
Filename C:My Music Box.;)-Want You More-Robert Palmer-1999.wav
Pre-gap length 0:00:00.66
Peak level 77.0 %
Track quality 100.0 %
Test CRC A2ED7832
Copy CRC A2ED7832
Copy OK
Track 15
Filename C:My Music Box.;)-Riptide-Robert Palmer-1999.wav
Pre-gap length 0:00:00.68
Peak level 86.2 %
Track quality 100.0 %
Test CRC 24FE6947
Copy CRC 24FE6947
Copy OK
Track 16
Filename C:My Music Box.;)-Discipline Of Love-Robert Palmer-1999.wav
Pre-gap length 0:00:00.67
Peak level 87.3 %
Track quality 100.0 %
Test CRC B7CE7C83
Copy CRC B7CE7C83
Copy OK
Track 17
Filename C:My Music Box.;)-Woke Up Laughing-Robert Palmer-1999.wav
Pre-gap length 0:00:00.68
Peak level 82.7 %
Track quality 100.0 %
Test CRC 69A4F520
Copy CRC 69A4F520
Copy OK
Track 18
Filename C:My Music Box.;)-What's It Take-Robert Palmer-1999.wav
Pre-gap length 0:00:00.69
Peak level 93.4 %
Track quality 100.0 %
Test CRC 1451B905
Copy CRC 1451B905
Copy OK
No errors occured
End of status report
Download:
(filesonic.com)
|
(hotfile.com)
|
(uploaded.to)
|
(letitbit.net)
|

Download MP3:
, ,




Alternative download links

Download part 1 Download part 2 Download part 1 Download part 2 Download part 1 Download part 2 hotfile.com uploaded.to

Related MP3 FLAC to Robert Palmer - Classic Robert Palmer Universal Masters Collection (1999)
Feedback
All rights reserved.
WEBBG.com © 2000-2018