Gregory Porter - Water (2010)
MP3 FLAC WMA APE HD

Gregory Porter - Water (2010)

Artist: Gregory Porter
Title Of Album: Water {Motema Music MTM
Year Of Release: 2010
Label: Motéma Music
Genre: Vocal Jazz
Quality: FLAC (image+.cue) + log
Bitrate: Lossless
Total Time: 01:09:13
Total Size: 418 Mb
With a voice that can caress or confront, embrace or exhort, Gregory Porter exhibits such an incredible degree of vocal mastery that no less a jazz luminary than Wynton Marsalis has gone on record to call him "a fantastic young singer," which makes the fact that Water is his recording debut even more impressive.
Tracklist:
01. Illusion (3:03)
02. Pretty (6:20)
03. Magic Cup (6:12)
04. Skylark (8:19)
05. Black Nile (4:56)
06. Wisdom (9:31)
07. 1960 What? (12:27)
08. But Beautiful (5:35)
09. Lonely One (5:42)
10. Water (4:02)
11. Feeling Good (3:01)
Exact Audio Copy V0.99 prebeta 5 from 4. May 2009
EAC extraction logfile from 17. August 2011, 15:04
Gregory Porter / Water
Used drive : HL-DT-STDVD-RAM GSA-H54N Adapter: 0 ID: 0
Read mode : Secure
Utilize accurate stream : Yes
Defeat audio cache : Yes
Make use of C2 pointers : No
Read offset correction : 102
Overread into Lead-In and Lead-Out : No
Fill up missing offset samples with silence : Yes
Delete leading and trailing silent blocks : No
Null samples used in CRC calculations : Yes
Used interface : Native Win32 interface for Win NT & 2000
Used output format : User Defined Encoder
Selected bitrate : 320 kBit/s
Quality : High
Add ID3 tag : No
Command line compressor : C:Program FilesExact Audio CopyFlacflac.exe
Additional command line options : -8 -V %s
TOC of the extracted CD
Track | Start | Length | Start sector | End sector
---------------------------------------------------------
1 | 0:00.00 | 3:03.46 | 0 | 13770
2 | 3:03.46 | 6:20.58 | 13771 | 42328
3 | 9:24.29 | 6:12.20 | 42329 | 70248
4 | 15:36.49 | 8:19.13 | 70249 | 107686
5 | 23:55.62 | 4:56.49 | 107687 | 129935
6 | 28:52.36 | 9:31.11 | 129936 | 172771
7 | 38:23.47 | 12:27.17 | 172772 | 228813
8 | 50:50.64 | 5:35.64 | 228814 | 254002
9 | 56:26.53 | 5:42.47 | 254003 | 279699
10 | 62:09.25 | 4:02.62 | 279700 | 297911
11 | 66:12.12 | 3:01.44 | 297912 | 311530
Range status and errors
Selected range
Filename C:EACGregory Porter - Water.wav
Peak level 99.5 %
Range quality 100.0 %
Test CRC 17767369
Copy CRC 17767369
Copy OK
No errors occurred
AccurateRip summary
Track 1 accurately ripped (confidence 2) [021600C9]
Track 2 accurately ripped (confidence 2) [3D9A7C32]
Track 3 accurately ripped (confidence 2) [8E12B898]
Track 4 accurately ripped (confidence 2) [E8314E67]
Track 5 accurately ripped (confidence 2) [059E60EC]
Track 6 accurately ripped (confidence 2) [544DE261]
Track 7 accurately ripped (confidence 2) [50A98559]
Track 8 accurately ripped (confidence 2) [1E80C69B]
Track 9 accurately ripped (confidence 2) [9B8E163A]
Track 10 accurately ripped (confidence 2) [99E438A5]
Track 11 accurately ripped (confidence 2) [EE7CB418]
All tracks accurately ripped
End of status report
FileSonic
Wupload



Alternative download links

DOWNLOAD

Related MP3 FLAC to Gregory Porter - Water (2010)
Feedback
All rights reserved.
WEBBG.com © 2000-2018