Split Heaven - Street Law (2011)
MP3 FLAC WMA APE HD

Split Heaven - Street Law (2011)

Artist: Split Heaven
Title Of Album: Street Law
Year Of Release: 2011
Label: Pure Steel Records
Genre: Heavy Metal
Quality: WavPack (image+.cue) + log
Bitrate: Lossless
Total Time: 00:37:34
Total Size: 304 Mb
Riding the crest of the new wave of traditional heavy metal (NWOTHM) is Mexico's Split Heaven with their third full-length release Street Law. Split Heaven makes no excuses for the straight from Eighties heavy/speed metal. This band digs metal with brisk pace, large riffs, and stinging guitar solos.
Tracklist:
01. Time Warrior (04:17)
02. The Devil Isn't Fool (04:10)
03. Night Of The Jaguar (04:57)
04. Street Law (03:35)
05. Servants Of The Night (03:06)
06. Lonewolf (04:00)
07. Road To Nowhere (03:07)
08. Red Light District (03:35)
09. Nightfall (03:32)
10. The Obscure (03:13)
Exact Audio Copy V0.99 prebeta 5 from 4. May 2009
EAC extraction logfile from 16. May 2011, 0:48
Split Heaven / Street Law
Used drive : Optiarc DVD RW AD-7260S Adapter: 3 ID: 0
Read mode : Secure
Utilize accurate stream : Yes
Defeat audio cache : Yes
Make use of C2 pointers : No
Read offset correction : 48
Overread into Lead-In and Lead-Out : No
Fill up missing offset samples with silence : Yes
Delete leading and trailing silent blocks : No
Null samples used in CRC calculations : Yes
Used interface : Installed external ASPI interface
Used output format : User Defined Encoder
Selected bitrate : 1024 kBit/s
Quality : High
Add ID3 tag : No
Command line compressor : D:Program FilesExact Audio CopyWavPackwavpack.exe
Additional command line options : -hhx6 -w "Artist=%a" -w "Album=%g" -w "Year=%y" -w "Genre=%m" -w "[email protected]*.cue" %s %d
TOC of the extracted CD
Track | Start | Length | Start sector | End sector
---------------------------------------------------------
1 | 0:00.00 | 4:17.38 | 0 | 19312
2 | 4:17.38 | 4:10.00 | 19313 | 38062
3 | 8:27.38 | 4:57.50 | 38063 | 60387
4 | 13:25.13 | 3:35.50 | 60388 | 76562
5 | 17:00.63 | 3:06.00 | 76563 | 90512
6 | 20:06.63 | 4:00.15 | 90513 | 108527
7 | 24:07.03 | 3:07.32 | 108528 | 122584
8 | 27:14.35 | 3:35.00 | 122585 | 138709
9 | 30:49.35 | 3:32.00 | 138710 | 154609
10 | 34:21.35 | 3:13.00 | 154610 | 169084
Range status and errors
Selected range
Filename H:SPLIT HEAVEN [2011] [CD] Street Law [EAC-WV]Split Heaven - Street Law.wav
Peak level 100.0 %
Range quality 100.0 %
Test CRC BB44A98D
Copy CRC BB44A98D
Copy OK
No errors occurred
AccurateRip summary
Track 1 not present in database
Track 2 not present in database
Track 3 not present in database
Track 4 not present in database
Track 5 not present in database
Track 6 not present in database
Track 7 not present in database
Track 8 not present in database
Track 9 not present in database
Track 10 not present in database
None of the tracks are present in the AccurateRip database
End of status report
FileSonic
Wupload



Alternative download links

DOWNLOAD

Related MP3 FLAC to Split Heaven - Street Law (2011)
Feedback
All rights reserved.
WEBBG.com © 2000-2018