Jesse McCartney - Right Where You Want Me
MP3 FLAC WMA APE HD

Jesse McCartney - Right Where You Want Me

  • Genre: Music, Pop, FLAC / APE
  • Formats: MP3 FLAC WMA HD APE
  • Album Size: 1554 mb.
  • Archive: ZIP RAR
Artist: Jesse McCartney
Title Of Album: Jesse McCartney - Right Where You Want Me
Year Of Release: September 19, 2006
Label: Hollywood Records
Genre: Pop
Quality: APE
Bitrate: lossless-image +cue +log +Scans
Total Size: ~291 MB
I really like jesse. he's got a good, if unique, voice and his songs from his solo debut were catchy enough. however, that disc had its lowpoints as it was geared heavily to the radio disney demographic. jesse grew up a little bit on his sophomore effort to great effect. the songs are a lot more guitar-driven and hook-laden. the highlight of the disc for me is the painful 'invincible.' the vocals will hook you, the lyrics will keep you in. highly recommended disc.
Tracklist:
1. Right Where You Want Me - 3:32
2. Just So You Know - 3:53
3. Blow Your Mind - 3:11
4. Right Back in the Water - 3:26
5. Anybody - 3:21
6. Tell Her - 4:00
7. Just Go - 3:38
8. Can't Let You Go - 2:46
9. We Can Go Anywhere - 3:35
10. Feelin' You - 3:25
11. Invincible - 3:43
12. Daddy's Little Girl - 2:44
Exact Audio Copy V0.99 prebeta 5 from 4. May 2009
Отчёт EAC об извлечении, выполненном 28. января 2010, 23:24
Jesse McCartney / Right Where You Want Me
Дисковод: _NEC DVD_RW ND-3550A Adapter: 0 ID: 0
Режим чтения : Достоверность
Использование точного потока : Да
Отключение кэша аудио : Да
Использование указателей C2 : Нет
Коррекция смещения при чтении : 48
Способность читать области Lead-in и Lead-out : Нет
Заполнение пропущенных сэмплов тишиной : Да
Удаление блоков с тишиной в начале и конце : Нет
При вычислениях CRC использовались нулевые сэмплы : Да
Интерфейс : Встроенный Win32-интерфейс для Win NT/2000
Выходной формат : Внутренние WAV-операции
Формат сэмплов : 44.100 Гц; 16 бит; стерео
TOC извлечённого CD
Трек | Старт | Длительность | Начальный сектор | Конечный сектор
---------------------------------------------------------------------
1 | 0:00.00 | 3:32.50 | 0 | 15949
2 | 3:32.50 | 3:54.30 | 15950 | 33529
3 | 7:27.05 | 3:11.25 | 33530 | 47879
4 | 10:38.30 | 3:26.00 | 47880 | 63329
5 | 14:04.30 | 3:21.02 | 63330 | 78406
6 | 17:25.32 | 4:00.08 | 78407 | 96414
7 | 21:25.40 | 3:38.52 | 96415 | 112816
8 | 25:04.17 | 2:46.05 | 112817 | 125271
9 | 27:50.22 | 3:35.63 | 125272 | 141459
10 | 31:26.10 | 3:25.65 | 141460 | 156899
11 | 34:52.00 | 3:43.45 | 156900 | 173669
12 | 38:35.45 | 2:43.45 | 173670 | 185939
Характеристики диапазона извлечения и сообщения об ошибках
Выбранный диапазон
Имя файла C:CD RipsJesse McCartney - Right Where You Want Me.wav
Пиковый уровень 99.8 %
Качество диапазона 100.0 %
CRC копии 712071FB
Копирование... OK
Ошибок не произошло
Конец отчёта
Download Jesse McCartney - Right Where You Want Me :
Fileserve.com:
Filesonic.com:
Hotfile.com:
Pass: israbox.download
All thanks go to the original Publicist "Shamil Lewis"
If you'll find that my links are dead please let me know through the Private Messages.
Please DO NOT MIRROR



Alternative download links

Part 1 Part 2 Part 1 Part 2

Related MP3 FLAC to Jesse McCartney - Right Where You Want Me
Feedback
All rights reserved.
WEBBG.com © 2000-2018