Rahen - Memories of Asia (2004)
MP3 FLAC WMA APE HD

Rahen - Memories of Asia (2004)

Artist: Rahen
Title Of Album: Memories of Asia
Year Of Release: 2004
Label: Tonebient
Genre: New Age
Quality: FLAC (image+.cue) + log
Bitrate: Lossless
Total Time: 67:49
Total Size: 366 Mb
Tracklist:
01. Memories of India (8:40)
02. Holy Mother I (0:40)
03. Infinity (3:53)
04. Voice of the Shaman (5:55)
05. Om Shanti (6:55)
06. Holy Mother II (0:25)
07. Ray of Light (7:18)
08. Holy Mother III (0:48)
09. Healing Earth (4:06)
10. Voice of the Oriental Girl (8:18)
11. Holy Mother IV (0:34)
12. Pilgrim (8:47)
13. Rain Forest (1:48)
14. Translucent Diary (5:01)
15. Unfinished Poem (4:41)
Exact Audio Copy V0.99 prebeta 5 from 4. May 2009
EAC extraction logfile from 11. July 2010, 17:02
Rahen / Memories of Asia
Used drive : PIONEER DVD-RW DVR-215D Adapter: 2 ID: 0
Read mode : Secure
Utilize accurate stream : Yes
Defeat audio cache : Yes
Make use of C2 pointers : No
Read offset correction : 48
Overread into Lead-In and Lead-Out : No
Fill up missing offset samples with silence : Yes
Delete leading and trailing silent blocks : No
Null samples used in CRC calculations : Yes
Used interface : Installed external ASPI interface
Used output format : User Defined Encoder
Selected bitrate : 768 kBit/s
Quality : High
Add ID3 tag : No
Command line compressor : C:Program FilesExact Audio CopyFLACFLAC.EXE
Additional command line options : -T "DATE=%y" -T "GENRE=%m" -8 -V %s
TOC of the extracted CD
Track | Start | Length | Start sector | End sector
---------------------------------------------------------
1 | 0:00.00 | 8:39.73 | 0 | 38997
2 | 8:39.73 | 0:40.05 | 38998 | 42002
3 | 9:20.03 | 3:53.23 | 42003 | 59500
4 | 13:13.26 | 5:54.44 | 59501 | 86094
5 | 19:07.70 | 6:54.67 | 86095 | 117211
6 | 26:02.62 | 0:25.35 | 117212 | 119121
7 | 26:28.22 | 7:18.19 | 119122 | 151990
8 | 33:46.41 | 0:47.66 | 151991 | 155581
9 | 34:34.32 | 4:06.31 | 155582 | 174062
10 | 38:40.63 | 8:17.60 | 174063 | 211397
11 | 46:58.48 | 0:33.69 | 211398 | 213941
12 | 47:32.42 | 8:46.72 | 213942 | 253463
13 | 56:19.39 | 1:47.58 | 253464 | 261546
14 | 58:07.22 | 5:00.70 | 261547 | 284116
15 | 63:08.17 | 4:41.04 | 284117 | 305195
Range status and errors
Selected range
Filename D:Rahen - Memories of AsiaRahen - Memories of Asia.wav
Peak level 97.7 %
Range quality 100.0 %
Test CRC C10BCB18
Copy CRC C10BCB18
Copy OK
No errors occurred
AccurateRip summary
Track 1 not present in database
Track 2 not present in database
Track 3 not present in database
Track 4 not present in database
Track 5 not present in database
Track 6 not present in database
Track 7 not present in database
Track 8 not present in database
Track 9 not present in database
Track 10 not present in database
Track 11 not present in database
Track 12 not present in database
Track 13 not present in database
Track 14 not present in database
Track 15 not present in database
None of the tracks are present in the AccurateRip database
End of status report
FileSonic.com
Turbobit.net



Alternative download links

DOWNLOAD

Related MP3 FLAC to Rahen - Memories of Asia (2004)
Feedback
All rights reserved.
WEBBG.com © 2000-2018