Ahmad Jamal Trio - Complete Live At The Spotlite Club 1958 (2007)
MP3 FLAC WMA APE HD

Ahmad Jamal Trio - Complete Live At The Spotlite Club 1958 (2007)

  • Genre: Music, Jazz, FLAC / APE
  • Formats: MP3 FLAC WMA HD APE
  • Album Size: 1821 mb.
  • Archive: ZIP RAR
Artist: Ahmad Jamal Trio
Title Of Album: Complete Live At The Spotlite Club 1958
Year Of Release: 2007
Label: Gambit Records
Genre: Jazz, Hard-bop
Quality: FLAC (Tracks,cue,log,scans)MP3
Bitrate: lossless | 320kbps
Total Time: 106:39 min
Total Size: 699 mb/275 mb (+5%rec)
Tracklist
CD1
01 - Ahmad's Blues (4:04)
02 - It Could Happen To You (4:17)
03 - I Wish I Knew (3:45)
04 - Autumn Leaves (7:40)
05 - Stompin' At the Savoy (4:15)
06 - Cheek To Cheek (4:47)
07 - The Girl Next Door (3:27)
08 - Secret Love (3:52)
09 - Squatty Roo (2:19)
10 - Taboo (4:01)
11 - Autumn in New York (3:18)
12 - A Gal in Calico (4:44)
13 - That's All (2:39)
14 - Should I (3:42)
CD2
01 - Seleritus (3:13)
02 - Let's Fall In Love (5:09)
03 - This Can't be Love (5:12)
04 - Ole Devil Moon (3:57)
05 - Ivy (3:09)
06 - Tater Pie (3:07)
07 - Aki & Ukthay (Brother & Sister) (3:17)
08 - You Don't Know What Love Is (3:30)
09 - I Didn't Know What Time It Was (4:36)
10 - So Beats My Heart For You (3:42)
11 - Our Delight (3:01)
12 - Soft Winds (3:22)
13 - Secret Love (2:50)
14 - Taking a Chance on Love (1:52)
EAC extraction logfile from 25. October 2007, 0:00 for CD
Ahmad Jamal Trio / Live At The Spotlite Club 1958 (CD1 of 2 CD)
Used drive : PLEXTOR DVDR PX-755A Adapter: 1 ID: 0
Read mode : Secure with NO C2, accurate stream, disable cache
Read offset correction : 30
Overread into Lead-In and Lead-Out : Yes
Used output format : Internal WAV Routines
44.100 Hz; 16 Bit; Stereo
Other options :
Fill up missing offset samples with silence : Yes
Delete leading and trailing silent blocks : No
Installed external ASPI interface
Track 1
Filename C:AudioAhmad Jamal Trio - Complete Live At The Spotlite Club 1958 [FLAC]CD1 of 2 CD1 - Ahmad's Blues.wav
Pre-gap length 0:00:02.00
Peak level 98.8 %
Track quality 100.0 %
Test CRC 6D1DEFE1
Copy CRC 6D1DEFE1
Copy OK
Track 2
Filename C:AudioAhmad Jamal Trio - Complete Live At The Spotlite Club 1958 [FLAC]CD1 of 2 CD2 - It Could Happen To You.wav
Peak level 98.8 %
Track quality 100.0 %
Test CRC 5DD90EC4
Copy CRC 5DD90EC4
Copy OK
Track 3
Filename C:AudioAhmad Jamal Trio - Complete Live At The Spotlite Club 1958 [FLAC]CD1 of 2 CD3 - I Wish I Knew.wav
Peak level 98.8 %
Track quality 100.0 %
Test CRC FBA4C6F8
Copy CRC FBA4C6F8
Copy OK
Track 4
Filename C:AudioAhmad Jamal Trio - Complete Live At The Spotlite Club 1958 [FLAC]CD1 of 2 CD4 - Autumn Leaves.wav
Peak level 100.0 %
Track quality 100.0 %
Test CRC 4F8761C3
Copy CRC 4F8761C3
Copy OK
Track 5
Filename C:AudioAhmad Jamal Trio - Complete Live At The Spotlite Club 1958 [FLAC]CD1 of 2 CD5 - Stompin' At the Savoy.wav
Peak level 90.0 %
Track quality 99.9 %
Test CRC F8A17300
Copy CRC F8A17300
Copy OK
Track 6
Filename C:AudioAhmad Jamal Trio - Complete Live At The Spotlite Club 1958 [FLAC]CD1 of 2 CD6 - Cheek To Cheek.wav
Peak level 98.8 %
Track quality 100.0 %
Test CRC 5C36ED39
Copy CRC 5C36ED39
Copy OK
Track 7
Filename C:AudioAhmad Jamal Trio - Complete Live At The Spotlite Club 1958 [FLAC]CD1 of 2 CD7 - The Girl Next Door.wav
Peak level 98.8 %
Track quality 100.0 %
Test CRC DE6C2B39
Copy CRC DE6C2B39
Copy OK
Track 8
Filename C:AudioAhmad Jamal Trio - Complete Live At The Spotlite Club 1958 [FLAC]CD1 of 2 CD8 - Secret Love.wav
Peak level 98.8 %
Track quality 100.0 %
Test CRC F07F1AC5
Copy CRC F07F1AC5
Copy OK
Track 9
Filename C:AudioAhmad Jamal Trio - Complete Live At The Spotlite Club 1958 [FLAC]CD1 of 2 CD9 - Squatty Roo.wav
Peak level 98.8 %
Track quality 100.0 %
Test CRC F5515498
Copy CRC F5515498
Copy OK
Track 10
Filename C:AudioAhmad Jamal Trio - Complete Live At The Spotlite Club 1958 [FLAC]CD1 of 2 CD10 - Taboo.wav
Peak level 94.4 %
Track quality 100.0 %
Test CRC ADBCD227
Copy CRC ADBCD227
Copy OK
Track 11
Filename C:AudioAhmad Jamal Trio - Complete Live At The Spotlite Club 1958 [FLAC]CD1 of 2 CD11 - Autumn in New York.wav
Peak level 98.8 %
Track quality 100.0 %
Test CRC 04F8EC17
Copy CRC 04F8EC17
Copy OK
Track 12
Filename C:AudioAhmad Jamal Trio - Complete Live At The Spotlite Club 1958 [FLAC]CD1 of 2 CD12 - A Gal in Calico.wav
Peak level 98.8 %
Track quality 100.0 %
Test CRC 2C0570BC
Copy CRC 2C0570BC
Copy OK
Track 13
Filename C:AudioAhmad Jamal Trio - Complete Live At The Spotlite Club 1958 [FLAC]CD1 of 2 CD13 - That's All.wav
Peak level 70.2 %
Track quality 99.9 %
Test CRC 1AB0DB46
Copy CRC 1AB0DB46
Copy OK
Track 14
Filename C:AudioAhmad Jamal Trio - Complete Live At The Spotlite Club 1958 [FLAC]CD1 of 2 CD14 - Should I.wav
Peak level 98.8 %
Track quality 100.0 %
Test CRC 09654257
Copy CRC 09654257
Copy OK
No errors occured
End of status report
EAC extraction logfile from 25. October 2007, 1:48 for CD
Ahmad Jamal Trio / Live At The Spotlite Club 1958 (CD2 of 2 CD)
Used drive : PLEXTOR DVDR PX-755A Adapter: 1 ID: 0
Read mode : Secure with NO C2, accurate stream, disable cache
Read offset correction : 30
Overread into Lead-In and Lead-Out : Yes
Used output format : Internal WAV Routines
44.100 Hz; 16 Bit; Stereo
Other options :
Fill up missing offset samples with silence : Yes
Delete leading and trailing silent blocks : No
Installed external ASPI interface
Track 1
Filename C:AudioAhmad Jamal Trio - Complete Live At The Spotlite Club 1958 [FLAC]CD2 of 2 CD1 - Seleritus.wav
Pre-gap length 0:00:02.00
Peak level 100.0 %
Track quality 100.0 %
Test CRC 2214FC41
Copy CRC 2214FC41
Copy OK
Track 2
Filename C:AudioAhmad Jamal Trio - Complete Live At The Spotlite Club 1958 [FLAC]CD2 of 2 CD2 - Let's Fall In Love.wav
Peak level 96.2 %
Track quality 100.0 %
Test CRC 8AEC1DB2
Copy CRC 8AEC1DB2
Copy OK
Track 3
Filename C:AudioAhmad Jamal Trio - Complete Live At The Spotlite Club 1958 [FLAC]CD2 of 2 CD3 - This Can't be Love.wav
Peak level 100.0 %
Track quality 100.0 %
Test CRC 9BDD52A7
Copy CRC 9BDD52A7
Copy OK
Track 4
Filename C:AudioAhmad Jamal Trio - Complete Live At The Spotlite Club 1958 [FLAC]CD2 of 2 CD4 - Ole Devil Moon.wav
Peak level 100.0 %
Track quality 99.9 %
Test CRC 8D214F45
Copy CRC 8D214F45
Copy OK
Track 5
Filename C:AudioAhmad Jamal Trio - Complete Live At The Spotlite Club 1958 [FLAC]CD2 of 2 CD5 - Ivy.wav
Peak level 100.0 %
Track quality 100.0 %
Test CRC 61881C69
Copy CRC 61881C69
Copy OK
Track 6
Filename C:AudioAhmad Jamal Trio - Complete Live At The Spotlite Club 1958 [FLAC]CD2 of 2 CD6 - Tater Pie.wav
Peak level 100.0 %
Track quality 100.0 %
Test CRC 133CDAE5
Copy CRC 133CDAE5
Copy OK
Track 7
Filename C:AudioAhmad Jamal Trio - Complete Live At The Spotlite Club 1958 [FLAC]CD2 of 2 CD7 - Aki & Ukthay (Brother & Sister).wav
Peak level 100.0 %
Track quality 100.0 %
Test CRC 358C74DC
Copy CRC 358C74DC
Copy OK
Track 8
Filename C:AudioAhmad Jamal Trio - Complete Live At The Spotlite Club 1958 [FLAC]CD2 of 2 CD8 - You Don't Know What Love Is.wav
Peak level 100.0 %
Track quality 100.0 %
Test CRC 5647FC49
Copy CRC 5647FC49
Copy OK
Track 9
Filename C:AudioAhmad Jamal Trio - Complete Live At The Spotlite Club 1958 [FLAC]CD2 of 2 CD9 - I Didn't Know What Time It Was.wav
Peak level 100.0 %
Track quality 100.0 %
Test CRC 319BDAEB
Copy CRC 319BDAEB
Copy OK
Track 10
Filename C:AudioAhmad Jamal Trio - Complete Live At The Spotlite Club 1958 [FLAC]CD2 of 2 CD10 - So Beats My Heart For You.wav
Peak level 100.0 %
Track quality 100.0 %
Test CRC CCC45CD9
Copy CRC CCC45CD9
Copy OK
Track 11
Filename C:AudioAhmad Jamal Trio - Complete Live At The Spotlite Club 1958 [FLAC]CD2 of 2 CD11 - Our Delight.wav
Pre-gap length 0:00:02.00
Peak level 100.0 %
Track quality 100.0 %
Test CRC 9F28CFA3
Copy CRC 9F28CFA3
Copy OK
Track 12
Filename C:AudioAhmad Jamal Trio - Complete Live At The Spotlite Club 1958 [FLAC]CD2 of 2 CD12 - Soft Winds.wav
Peak level 91.2 %
Track quality 100.0 %
Test CRC 79673F38
Copy CRC 79673F38
Copy OK
Track 13
Filename C:AudioAhmad Jamal Trio - Complete Live At The Spotlite Club 1958 [FLAC]CD2 of 2 CD13 - Secret Love.wav
Peak level 90.6 %
Track quality 99.9 %
Test CRC F15B4A90
Copy CRC F15B4A90
Copy OK
Track 14
Filename C:AudioAhmad Jamal Trio - Complete Live At The Spotlite Club 1958 [FLAC]CD2 of 2 CD14 - Taking a Chance on Love.wav
Pre-gap length 0:00:02.00
Peak level 64.4 %
Track quality 100.0 %
Test CRC B4265AA6
Copy CRC B4265AA6
Copy OK
No errors occured
End of status report
Gambit presents the Ahmad Jamal Trio recorded Live at the Spotlite Club in Washington, D.C. on September 5 and 6, 1958. Beautifully remastered and carefully sequenced so as to closely approximate the original order of presentation, these performances illustrate the dramatic interplay between pianist Jamal, bassist Israel Crosby and drummer Vernell Fournier. Best heard at sunset, late at night by candlelight, or in a cozy room softly illumined by indirect incandescence, this music offers the listener an opportunity to savor both what Jamal plays and what he doesn't play. His sense of timing, the way he employs contrasting dynamics and his quirky flair for the dramatic have always made Ahmad Jamal an exciting performer. His Spotlite recordings are filled with surprises and exhilarating passages, such as the spirited rendition of "Squatty Roo" by the great Johnny Hodges. Note that much of the nearly three hours of material recorded nine months earlier at the Pershing Club in Chicago appears to have vanished; one can only hope that some sort of time capsule will one day surface, packed with reels of all-but-forgotten Jamal, and be shared with the public. Happily, a much larger percentage of the music recorded at the Spotlite did survive, found its way onto numerous albums over the years, and appears here in Gaslight's gloriously dilated complete edition. Three studio-recorded bonus tracks have been added to this excellent compilation; these elusive rarities were originally issued as 45 rpm singles. ~ arwulf arwulf, All Music Guide
Each archive contains information for recovery! All parts are interchangeable
Download FLAC

Download MP3





Alternative download links

hotfile1 hotfile2 hotfile3 hotfile4 fileserve1 fileserve2 fileserve3 fileserve4 hotfile1 hotfile2 fileserve1 fileserve2

Related MP3 FLAC to Ahmad Jamal Trio - Complete Live At The Spotlite Club 1958 (2007)
Feedback
All rights reserved.
WEBBG.com © 2000-2018