VA - Future Chill (2CD) 2006
MP3 FLAC WMA APE HD

VA - Future Chill (2CD) 2006

Artist: VA
Title Of Album: Future Chill
Year Of Release: 2006
Label: Ilabel
Genre: Chillout,Lounge,Abmient
Quality: Flac(Image+Cue+Log)/mp3
Bitrate: Lossless/320kbps
Total Time: 115:78 min
Total Size: 807Mb/282Mb
Tracklist:
CD1

1. Mr Haywood presents Goloka - Thinking About You (Islas Baleares mix)
2. Pretz (Neil Cowley) - Chapel Stile
3. Afterlife feat Battistessa - Let it Go
4. Still feat Cathy Battistessa - In the Water (Deep Water mix)
5. Mooli - One Design
6. Bliss - Evening Sun
7. Huw - Grey Sky Blue
8. River Gods - Acacia House
9. Mr Haywood presents Goloka - Mandarin
10. Baby Grand - Melodica
11. Pan Electric (ex Fragile State) - Rising Slowly
Exact Audio Copy V0.99 prebeta 4 from 23. January 2008
Отчёт EAC об извлечении, выполненном 10. августа 2010, 14:05
Various Artists / iLabel Presents 'Future Chill'
Дисковод: SONY DVD RW AW-G540A Adapter: 0 ID: 0
Режим чтения : Достоверность
Использование точного потока : Да
Отключение кэша аудио : Да
Использование указателей C2 : Нет
Коррекция смещения при чтении : 48
Способность читать области Lead-in и Lead-out : Нет
Заполнение пропущенных сэмплов тишиной : Да
Удаление блоков с тишиной в начале и конце : Нет
При вычислениях CRC использовались нулевые сэмплы : Да
Интерфейс : Установленный внешний ASPI-интерфейс
Выходной формат : Внутренние WAV-операции
Формат сэмплов : 44.100 Гц; 16 бит; стерео
TOC извлечённого CD
Трек | Старт | Длительность | Начальный сектор | Конечный сектор
---------------------------------------------------------------------
1 | 0:00.00 | 7:24.39 | 0 | 33338
2 | 7:24.39 | 4:41.49 | 33339 | 54462
3 | 12:06.13 | 5:24.63 | 54463 | 78825
4 | 17:31.01 | 5:06.05 | 78826 | 101780
5 | 22:37.06 | 4:35.33 | 101781 | 122438
6 | 27:12.39 | 4:18.59 | 122439 | 141847
7 | 31:31.23 | 3:56.05 | 141848 | 159552
8 | 35:27.28 | 3:55.41 | 159553 | 177218
9 | 39:22.69 | 4:11.01 | 177219 | 196044
10 | 43:33.70 | 4:54.64 | 196045 | 218158
11 | 48:28.59 | 6:23.55 | 218159 | 246938
Характеристики диапазона извлечения и сообщения об ошибках
Выбранный диапазон
Имя файла C:DesktopVarious Artists - iLabel Presents 'Future Chill'.wavVarious Artists - iLabel Presents 'Future Chill'.wav
Пиковый уровень 100.0 %
Качество диапазона 100.0 %
CRC теста 3493595B
CRC копии 3493595B
Копирование... OK
Ошибок не произошло
Конец отчёта
CD2
1. Bombay Dub Orchestra - To the Shore (Pathaan's Ray of Sunshine mix)
2. Chris Coco - Evidence
3. Andy Ford - 18 Hours
4. Frontera(Phil Mison) - Rouge
5. No Logo(Pete Gooding and Afterlife) - Bacalao
6. FXU - Longest Summer
7. Cool Fossil - Lemon Soda
8. Atakama - Essence
9. Parallel - Interstellar
10. James Bright Featuring Rachel Lloyd - Little Things
11. Pretz (Neil Cowley) - Fooby Scoo
Exact Audio Copy V0.99 prebeta 4 from 23. January 2008
Отчёт EAC об извлечении, выполненном 10. августа 2010, 15:31
Various / Future Chill (disc 2)
Дисковод: SONY DVD RW AW-G540A Adapter: 0 ID: 0
Режим чтения : Достоверность
Использование точного потока : Да
Отключение кэша аудио : Да
Использование указателей C2 : Нет
Коррекция смещения при чтении : 48
Способность читать области Lead-in и Lead-out : Нет
Заполнение пропущенных сэмплов тишиной : Да
Удаление блоков с тишиной в начале и конце : Нет
При вычислениях CRC использовались нулевые сэмплы : Да
Интерфейс : Установленный внешний ASPI-интерфейс
Выходной формат : Внутренние WAV-операции
Формат сэмплов : 44.100 Гц; 16 бит; стерео
TOC извлечённого CD
Трек | Старт | Длительность | Начальный сектор | Конечный сектор
---------------------------------------------------------------------
1 | 0:00.00 | 5:43.47 | 0 | 25771
2 | 5:43.47 | 5:45.06 | 25772 | 51652
3 | 11:28.53 | 7:18.39 | 51653 | 84541
4 | 18:47.17 | 6:29.09 | 84542 | 113725
5 | 25:16.26 | 5:36.26 | 113726 | 138951
6 | 30:52.52 | 3:50.69 | 138952 | 156270
7 | 34:43.46 | 4:11.54 | 156271 | 175149
8 | 38:55.25 | 7:12.17 | 175150 | 207566
9 | 46:07.42 | 5:11.15 | 207567 | 230906
10 | 51:18.57 | 4:36.46 | 230907 | 251652
11 | 55:55.28 | 6:29.66 | 251653 | 280893
Характеристики диапазона извлечения и сообщения об ошибках
Выбранный диапазон
Имя файла C:DesktopVarious Artists - iLabel Presents 'Future Chill'.wavVarious - Future Chill (disc 2).wav
Пиковый уровень 100.0 %
Качество диапазона 100.0 %
CRC теста 71D51BDE
CRC копии 71D51BDE
Копирование... OK
Ошибок не произошло
Конец отчёта
Lossless

MP3





Alternative download links

hotfile.com-1 hotfile.com-2 hotfile.com-3 hotfile.com-4 hotfile.com-1 hotfile.com-2

Related MP3 FLAC to VA - Future Chill (2CD) 2006
Feedback
All rights reserved.
WEBBG.com © 2000-2018