Carl Philipp Emanuel Bach - Symphonies and concertos pour violoncelle (Cafe Zimmermann) (2006)
MP3 FLAC WMA APE HD

Carl Philipp Emanuel Bach - Symphonies and concertos pour violoncelle (Cafe Zimmermann) (2006)

Artist: Carl Philipp Emanuel Bach
Title Of Album: Symphonies and concertos pour violoncelle (Cafe Zimmermann)
Year Of Release: 2006
Label: Alpha
Genre: Classical
Quality: Wav(Image+Cue+Log+Scans)/mp3
Bitrate: lossless/320kbps
Total Time: 62:20 min
Total Size: 527Mb/142Mb
Tracklisting:
Sinfonia pour deux violons, alto et basse en Do Majeur, WQ 182/3;
1. I. Allegro Assai
2. II. Adagio
3. III. Allegretto
Sinfonia pour deux violons, alto et basse en Si Mineur, WQ 182/5;
4. I. Allegretto
5. II. Larghetto
6. III. Presto
Concerto pour violoncelle, avec deux violons, alto et basse en La Majeur, WQ 172;
7. I. Allegro
8. II. Largo
9. III. Allegro Assai
Sinfonia pour deux violons, alto et basse en Mi Majeur, WQ 182/6;
10. I. Allegro di molto
11. II. Poco andante
12. III. Allegro spirituoso
Sinfonia pour deux violons, alto et basse en Sol Majeur, WQ 182/1;
13. I. Allegro di molto
14. II. Poco adagio
15. III. Presto
Exact Audio Copy V0.99 prebeta 4 from 23. January 2008
EAC extraction logfile from 2. September 2010, 20:29
Carl Philipp Emanuel Bach / Symphonies & concertos pour violoncelle (Cafe Zimmermann)
Used drive : PLEXTOR DVDR PX-755A Adapter: 1 ID: 1
Read mode : Secure
Utilize accurate stream : Yes
Defeat audio cache : Yes
Make use of C2 pointers : No
Read offset correction : 30
Overread into Lead-In and Lead-Out : No
Fill up missing offset samples with silence : Yes
Delete leading and trailing silent blocks : No
Null samples used in CRC calculations : Yes
Used interface : Installed external ASPI interface
Used output format : Internal WAV Routines
Sample format : 44.100 Hz; 16 Bit; Stereo
TOC of the extracted CD
Track | Start | Length | Start sector | End sector
---------------------------------------------------------
1 | 0:00.00 | 2:32.23 | 0 | 11422
2 | 2:32.23 | 3:05.71 | 11423 | 25368
3 | 5:38.19 | 4:33.16 | 25369 | 45859
4 | 10:11.35 | 4:07.52 | 45860 | 64436
5 | 14:19.12 | 2:23.59 | 64437 | 75220
6 | 16:42.71 | 3:42.60 | 75221 | 91930
7 | 20:25.56 | 6:49.04 | 91931 | 122609
8 | 27:14.60 | 9:34.14 | 122610 | 165673
9 | 36:48.74 | 5:32.06 | 165674 | 190579
10 | 42:21.05 | 2:18.36 | 190580 | 200965
11 | 44:39.41 | 3:07.42 | 200966 | 215032
12 | 47:47.08 | 3:11.68 | 215033 | 229425
13 | 50:59.01 | 3:36.32 | 229426 | 245657
14 | 54:35.33 | 3:35.31 | 245658 | 261813
15 | 58:10.64 | 3:50.09 | 261814 | 279072
Range status and errors
Selected range
Filename Z:NetLabC.P.E. Bach - Symphonies and concertos pour violoncelle (Cafe Zimmermann) Carl Philipp Emanuel Bach - Symphonies & concertos pour violoncelle (Cafe Zimmermann).wav
Peak level 99.8 %
Range quality 100.0 %
Test CRC 17950E58
Copy CRC 17950E58
Copy OK
No errors occurred

AccurateRip summary

Track 1 accurately ripped (confidence 8) [A37A5685]
Track 2 accurately ripped (confidence 8) [47A7CD94]
Track 3 accurately ripped (confidence 8) [EEFAF975]
Track 4 accurately ripped (confidence 8) [F0334F20]
Track 5 accurately ripped (confidence 8) [C5079929]
Track 6 accurately ripped (confidence 8) [8C759456]
Track 7 accurately ripped (confidence 8) [C1AD397B]
Track 8 accurately ripped (confidence 8) [68066315]
Track 9 accurately ripped (confidence 8) [43B3219C]
Track 10 accurately ripped (confidence 8) [6D288879]
Track 11 accurately ripped (confidence 8) [F1AECCE0]
Track 12 accurately ripped (confidence 8) [55A24C28]
Track 13 accurately ripped (confidence 8) [6E181B3F]
Track 14 accurately ripped (confidence 8) [55C35D21]
Track 15 accurately ripped (confidence 8) [295D194B]

All tracks accurately ripped
End of status report
Musicians:
Pablo Valetti, violon & konzertmeister
David Plantier, violons
Fabrizio Zanella, violons
Farran James, violons
Nick Robinson, violons
Helena Zemanova, violons
Juan Roque Alsina, violons
Laura Johnson, violons
Patricia Gagnon, altos
Diane Chmela, altos
Petr Skalka, violoncelle solo
Dmitri Dichtiar, violoncelles
Etienne Mangot, violoncelles
Ludek Brany, contrebasse
Celine Frisch, clavecin
Carl Philipp Emanuel Bach (8 March 1714 – 14 December 1788) was a German musician and composer, the second of three sons of Johann Sebastian Bach and Maria Barbara Bach. He was a crucial composer in the transition between the Baroque and Classical periods, and one of the founders of the Classical style, composing in the Rococo and Classical periods. His second name was given in honor of Georg Philipp Telemann, a friend of Emanuel's father and his godfather.
Lossless

MP3




Alternative download links

hotfile.com-1 hotfile.com-2 hotfile.com-3 fileserve.com-1 fileserve.com-2 fileserve.com-3 HOTFILE FILESERVE

Related MP3 FLAC to Carl Philipp Emanuel Bach - Symphonies and concertos pour violoncelle (Cafe Zimmermann) (2006)
Feedback
All rights reserved.
WEBBG.com © 2000-2018