Philip Sayce - Ruby Electric (2011)
MP3 FLAC WMA APE HD

Philip Sayce - Ruby Electric (2011)

Artist: Philip Sayce
Title Of Album: Ruby Electric
Year Of Release: 2011
Label: Provogue
Genre: Blues, Rock
Quality: APE (image+.cue) + log
Bitrate: Lossless
Total Time: 56:26
Total Size: 395 Mb
Philip Sayce is a Welsh born guitarist, singer and songwriter from Canada. Sayce was born in Aberystwyth, but family moved to Canada when he was two years old, and he grew up in Toronto. His parents, Kenneth and Sheila, listened to music by Eric Clapton, Ry Cooder and Dire Straits, among many other artists.
Tracklist:
01. Let the Love In [0:02:58.32]
02. Set Us Free [0:03:12.92]
03. Daydream Tonight (Live from Lion's Share) [0:04:00.30]
04. King of New Mexico [0:02:31.94]
05. Were You There [0:04:12.44]
06. Ruby Electric [0:01:49.89]
07. Helios [0:00:53.05]
08. One Foot In The Grave [0:03:09.06]
09. Powerful Thing [0:04:38.32]
10. Slipaway [0:08:26.57]
11. Alchemy [0:06:31.74]
12. Take You Away [0:04:08.57]
13. Angels Live Inside [0:04:16.81]
14. Cinnamon GirlI Want You (She's So heavy) [0:05:36.25]
Exact Audio Copy V0.99 prebeta 4 from 23. January 2008
Отчёт EAC об извлечении, выполненном 14. августа 2011, 3:26
Philip Sayce / Ruby Electric
Дисковод: Optiarc DVD RW AD-7173A Adapter: 0 ID: 1
Режим чтения : Достоверность
Использование точного потока : Да
Отключение кэша аудио : Да
Использование указателей C2 : Нет
Коррекция смещения при чтении : 48
Способность читать области Lead-in и Lead-out : Нет
Заполнение пропущенных сэмплов тишиной : Да
Удаление блоков с тишиной в начале и конце : Нет
При вычислениях CRC использовались нулевые сэмплы : Да
Интерфейс : Встроенный Win32-интерфейс для Win NT/2000
Выходной формат : Внутренние WAV-операции
Формат сэмплов : 44.100 Гц; 16 бит; стерео
TOC извлечённого CD
Трек | Старт | Длительность | Начальный сектор | Конечный сектор
---------------------------------------------------------------------
1 | 0:00.00 | 2:58.24 | 0 | 13373
2 | 2:58.24 | 3:12.69 | 13374 | 27842
3 | 6:11.18 | 4:00.23 | 27843 | 45865
4 | 10:11.41 | 2:31.71 | 45866 | 57261
5 | 12:43.37 | 4:12.33 | 57262 | 76194
6 | 16:55.70 | 1:49.67 | 76195 | 84436
7 | 18:45.62 | 0:53.04 | 84437 | 88415
8 | 19:38.66 | 3:09.05 | 88416 | 102595
9 | 22:47.71 | 4:38.24 | 102596 | 123469
10 | 27:26.20 | 8:26.43 | 123470 | 161462
11 | 35:52.63 | 6:31.56 | 161463 | 190843
12 | 42:24.44 | 4:08.43 | 190844 | 209486
13 | 46:33.12 | 4:16.61 | 209487 | 228747
14 | 50:49.73 | 5:36.19 | 228748 | 253966
Характеристики диапазона извлечения и сообщения об ошибках
Выбранный диапазон
Имя файла E:Philip Sayce-Ruby ElectricPhilip Sayce - Ruby Electric.wav
Пиковый уровень 100.0 %
Качество диапазона 100.0 %
CRC теста 1E05256E
CRC копии 1E05256E
Копирование... OK
Ошибок не произошло
AccurateRip: сводка
Трек 1 нет в базе данных
Трек 2 нет в базе данных
Трек 3 нет в базе данных
Трек 4 нет в базе данных
Трек 5 нет в базе данных
Трек 6 нет в базе данных
Трек 7 нет в базе данных
Трек 8 нет в базе данных
Трек 9 нет в базе данных
Трек 10 нет в базе данных
Трек 11 нет в базе данных
Трек 12 нет в базе данных
Трек 13 нет в базе данных
Трек 14 нет в базе данных
Ни одного трека нет в базе AccurateRip
Конец отчёта
FileSonic
Wupload



Alternative download links

DOWNLOAD

Related MP3 FLAC to Philip Sayce - Ruby Electric (2011)
Feedback
All rights reserved.
WEBBG.com © 2000-2018