Earth, Wind Fire - All N All (2004)
MP3 FLAC WMA APE HD

Earth, Wind Fire - All N All (2004)

Artist: Earth, Wind & Fire
Title Of Album: All 'N All (Japan Remaster)
Year Of Release: 2004
Label: Sony Music Direct (Japan) Inc.
Genre: Pop/Funk/Soul/R'n'B
Quality: FLAC (*.flac)
Bitrate: lossless
Total Time: 47:11
Total Size: 659 MB
Tracklist:
01. Serpentine Fire [0:03:50.42]
02. Fantasy [0:04:37.33]
03. In The Marketplace (Interlude) [0:00:43.07]
04. Jupiter [0:03:11.15]
05. Love's Holiday [0:04:22.08]
06. Brazilian Rhyme (Interlude) [0:01:20.07]
07. I'll Write A Song For You [0:05:23.40]
08. Magic Mind [0:03:38.68]
09. Runnin' [0:05:50.52]
10. Brazilian Rhyme (Interlude) [0:00:53.15]
11. Be Ever Wonderful [0:05:07.55]
12. Would You Mind (Demo Version of Love's Holiday) [0:02:21.23]
13. Runnin' (Original Hollywood Mix) [0:03:19.47]
14. Brazilian Rhyme (Recorded Live on OCT. 25, 1980, at Maracanazinho, Rio de Janeiro, Brazil) [0:02:32.15]
Exact Audio Copy V1.0 beta 1 from 15. November 2010
EAC extraction logfile from 24. January 2011, 21:13
Earth, Wind & Fire / All 'N All
Used drive : PIONEER DVD-RW DVR-112D Adapter: 2 ID: 0
Read mode : Secure
Utilize accurate stream : Yes
Defeat audio cache : Yes
Make use of C2 pointers : No
Read offset correction : 48
Overread into Lead-In and Lead-Out : No
Fill up missing offset samples with silence : Yes
Delete leading and trailing silent blocks : No
Null samples used in CRC calculations : Yes
Used interface : Installed external ASPI interface
Used output format : User Defined Encoder
Selected bitrate : 1024 kBit/s
Quality : High
Add ID3 tag : No
Command line compressor : C:Program Files (x86)Exact Audio CopyFlacflac.exe
Additional command line options : -5 -V -T "ARTIST=%a" -T "TITLE=%t" -T "ALBUM=%g" -T "DATE=%y" -T "TRACKNUMBER=%n" -T "GENRE=%m" -T "COMMENT=EAC FLAC -5" %s
TOC of the extracted CD
Track | Start | Length | Start sector | End sector
---------------------------------------------------------
1 | 0:00.00 | 3:50.42 | 0 | 17291
2 | 3:50.42 | 4:37.33 | 17292 | 38099
3 | 8:28.00 | 0:43.07 | 38100 | 41331
4 | 9:11.07 | 3:11.15 | 41332 | 55671
5 | 12:22.22 | 4:22.08 | 55672 | 75329
6 | 16:44.30 | 1:20.07 | 75330 | 81336
7 | 18:04.37 | 5:23.40 | 81337 | 105601
8 | 23:28.02 | 3:38.68 | 105602 | 122019
9 | 27:06.70 | 5:50.52 | 122020 | 148321
10 | 32:57.47 | 0:53.15 | 148322 | 152311
11 | 33:50.62 | 5:07.55 | 152312 | 175391
12 | 38:58.42 | 2:21.23 | 175392 | 185989
13 | 41:19.65 | 3:19.47 | 185990 | 200961
14 | 44:39.37 | 2:32.15 | 200962 | 212376
Range status and errors
Selected range
Filename F:Earth, Wind & Fire - All 'N All - 1977 (Japan)Earth, Wind & Fire - All 'N All.wav
Peak level 100.0 %
Extraction speed 0.3 X
Range quality 100.0 %
Test CRC E275C0AA
Copy CRC E275C0AA
Copy OK
No errors occurred
AccurateRip summary
Track 1 accurately ripped (confidence 1) [BBC209CC]
Track 2 accurately ripped (confidence 1) [23544B0C]
Track 3 accurately ripped (confidence 1) [D9CE3E21]
Track 4 accurately ripped (confidence 1) [C4BDBD9C]
Track 5 accurately ripped (confidence 1) [3DC85BD4]
Track 6 accurately ripped (confidence 1) [22B2879A]
Track 7 accurately ripped (confidence 1) [59CD630F]
Track 8 accurately ripped (confidence 1) [E84F91BE]
Track 9 accurately ripped (confidence 1) [79AA2216]
Track 10 accurately ripped (confidence 1) [865BFF02]
Track 11 accurately ripped (confidence 1) [2617B41A]
Track 12 accurately ripped (confidence 1) [BD9CABFF]
Track 13 accurately ripped (confidence 1) [8256275B]
Track 14 accurately ripped (confidence 1) [F082D62D]
All tracks accurately ripped
End of status report
Uploaded.to
|
Hotfile.com
|



Alternative download links

part 1 part 2

Related MP3 FLAC to Earth, Wind Fire - All N All (2004)
Feedback
All rights reserved.
WEBBG.com © 2000-2018