Rufus Wainwright - Release The Stars (2007)
MP3 FLAC WMA APE HD

Rufus Wainwright - Release The Stars (2007)

Artist: Rufus Wainwright
Title Of Album: Release The Stars
Year Of Release: 2007
Label: Geffen Records
Genre: Pop rock
Quality: FLAC (tracks+.cue) + log
Bitrate: Lossless
Total Time: 55:14
Total Size: 337 Mb
Release the Stars is the fifth studio album by Canadian-American singer-songwriter Rufus Wainwright, released through Geffen Records on May 15, 2007. Pet Shop Boys' Neil Tennant was the executive in charge of production, and the album was mixed by producers Marius de Vries and Andy Bradfield.
Tracklist:
01 - Do I Disappoint You
02 - Going To A Town
03 - Tiergarten
04 - Nobody's Off The Hook
05 - Between My Legs
06 - Rules And Regulations
07 - Not Ready To Love
08 - Slideshow
09 - Tulsa
10 - Leaving For Paris
11 - Sanssouci
12 - Release The Stars
Exact Audio Copy V0.99 prebeta 5 from 4. May 2009
Отчёт EAC об извлечении, выполненном 7. августа 2011, 14:53
Rufus Wainwright / Release The Stars
Дисковод: PLEXTOR DVDR PX-810SA Adapter: 1 ID: 1
Режим чтения : Достоверность
Использование точного потока : Да
Отключение кэша аудио : Да
Использование указателей C2 : Нет
Коррекция смещения при чтении : 48
Способность читать области Lead-in и Lead-out : Нет
Заполнение пропущенных сэмплов тишиной : Да
Удаление блоков с тишиной в начале и конце : Нет
При вычислениях CRC использовались нулевые сэмплы : Да
Интерфейс : Встроенный Win32-интерфейс для Win NT/2000
Обработка зазоров : Добавлено к предыдущему треку
Выходной формат : Внутренние WAV-операции
Формат сэмплов : 44.100 Гц; 16 бит; стерео
TOC извлечённого CD
Трек | Старт | Длительность | Начальный сектор | Конечный сектор
---------------------------------------------------------------------
1 | 0:00.00 | 4:40.61 | 0 | 21060
2 | 4:40.61 | 4:06.41 | 21061 | 39551
3 | 8:47.27 | 3:26.48 | 39552 | 55049
4 | 12:14.00 | 4:27.32 | 55050 | 75106
5 | 16:41.32 | 4:26.11 | 75107 | 95067
6 | 21:07.43 | 4:05.36 | 95068 | 113478
7 | 25:13.04 | 5:51.04 | 113479 | 139807
8 | 31:04.08 | 6:21.39 | 139808 | 168421
9 | 37:25.47 | 2:19.70 | 168422 | 178916
10 | 39:45.42 | 4:52.20 | 178917 | 200836
11 | 44:37.62 | 5:16.15 | 200837 | 224551
12 | 49:54.02 | 5:20.14 | 224552 | 248565
Трек 1
Имя файла C:New1 - Do I Disappoint You.wav
Длина предзазора 0:00:02.00
Пиковый уровень 96.5 %
Качество трека 100.0 %
CRC теста B8DB0960
CRC копии B8DB0960
Точное извлечение (достоверность 152) [1BE7F93E]
Копирование... OK
Трек 2
Имя файла C:New2 - Going To A Town.wav
Длина предзазора 0:00:01.11
Пиковый уровень 96.5 %
Качество трека 100.0 %
CRC теста DFE45D35
CRC копии DFE45D35
Точное извлечение (достоверность 152) [C880CF1D]
Копирование... OK
Трек 3
Имя файла C:New3 - Tiergarten.wav
Длина предзазора 0:00:01.59
Пиковый уровень 96.4 %
Качество трека 100.0 %
CRC теста 5DE58E8C
CRC копии 5DE58E8C
Точное извлечение (достоверность 154) [9F7A9427]
Копирование... OK
Трек 4
Имя файла C:New4 - Nobody's Off The Hook.wav
Длина предзазора 0:00:01.72
Пиковый уровень 96.5 %
Качество трека 100.0 %
CRC теста 754FD9E9
CRC копии 754FD9E9
Точное извлечение (достоверность 151) [E38A2702]
Копирование... OK
Трек 5
Имя файла C:New5 - Between My Legs.wav
Длина предзазора 0:00:02.14
Пиковый уровень 96.5 %
Качество трека 100.0 %
CRC теста AD0F4DF8
CRC копии AD0F4DF8
Точное извлечение (достоверность 149) [63FF6C68]
Копирование... OK
Трек 6
Имя файла C:New6 - Rules And Regulations.wav
Длина предзазора 0:00:02.00
Пиковый уровень 96.5 %
Качество трека 100.0 %
CRC теста CA81F4C4
CRC копии CA81F4C4
Точное извлечение (достоверность 152) [B49C7661]
Копирование... OK
Трек 7
Имя файла C:New7 - Not Ready To Love.wav
Длина предзазора 0:00:03.42
Пиковый уровень 96.5 %
Качество трека 100.0 %
CRC теста C27EFE31
CRC копии C27EFE31
Точное извлечение (достоверность 154) [97F14351]
Копирование... OK
Трек 8
Имя файла C:New8 - Slideshow.wav
Пиковый уровень 96.5 %
Качество трека 99.9 %
CRC теста D2B04D75
CRC копии D2B04D75
Точное извлечение (достоверность 150) [3C8448A5]
Копирование... OK
Трек 9
Имя файла C:New9 - Tulsa.wav
Длина предзазора 0:00:02.43
Пиковый уровень 96.5 %
Качество трека 100.0 %
CRC теста DC298198
CRC копии DC298198
Точное извлечение (достоверность 151) [AF34BA0D]
Копирование... OK
Трек 10
Имя файла C:New10 - Leaving For Paris.wav
Длина предзазора 0:00:01.60
Пиковый уровень 96.5 %
Качество трека 100.0 %
CRC теста 77808147
CRC копии 77808147
Точное извлечение (достоверность 154) [41FA24FD]
Копирование... OK
Трек 11
Имя файла C:New11 - Sanssouci.wav
Пиковый уровень 96.5 %
Качество трека 100.0 %
CRC теста EE975FEE
CRC копии EE975FEE
Точное извлечение (достоверность 152) [54BA4634]
Копирование... OK
Трек 12
Имя файла C:New12 - Release The Stars.wav
Длина предзазора 0:00:01.05
Пиковый уровень 96.5 %
Качество трека 100.0 %
CRC теста 83AFEC11
CRC копии 83AFEC11
Точное извлечение (достоверность 152) [B7BA7157]
Копирование... OK
Все треки извлечены точно
Ошибок не произошло
Конец отчёта
FileSonic
Wupload



Alternative download links

DOWNLOAD

Related MP3 FLAC to Rufus Wainwright - Release The Stars (2007)
Feedback
All rights reserved.
WEBBG.com © 2000-2018